<?xml version="1.0" standalone="no"?>
<!DOCTYPE svg PUBLIC "-//W3C//DTD SVG 1.1//EN" "http://www.w3.org/Graphics/SVG/1.1/DTD/svg11.dtd" >
<svg xmlns="http://www.w3.org/2000/svg">
<metadata></metadata>
<defs>
<font id="proxima_nova_rgbold_italic" horiz-adv-x="1185" >
<font-face units-per-em="2048" ascent="1618" descent="-430" />
<missing-glyph horiz-adv-x="526" />
<glyph horiz-adv-x="0" />
<glyph horiz-adv-x="682" />
<glyph unicode=" "  horiz-adv-x="526" />
<glyph unicode="&#x09;" horiz-adv-x="526" />
<glyph unicode="&#xa0;" horiz-adv-x="526" />
<glyph unicode="!" horiz-adv-x="522" d="M16 129q0 73 54.5 126.5t128.5 53.5q63 0 107 -45t44 -108q0 -73 -54 -127t-128 -54q-63 0 -107.5 45.5t-44.5 108.5zM133 446l162 920h313l-243 -920h-232z" />
<glyph unicode="&#x22;" horiz-adv-x="831" d="M231 768q17 414 19 455q1 70 47.5 116.5t114.5 46.5q52 0 88.5 -35.5t36.5 -90.5q0 -24 -15 -62l-176 -430h-115zM604 768q17 414 19 455q1 70 48 116.5t115 46.5q51 0 87 -36t36 -90q0 -39 -14 -62l-176 -430h-115z" />
<glyph unicode="#" horiz-adv-x="1265" d="M0 348l90 166h201l186 338h-198l86 164h204l193 350h192l-192 -350h192l193 350h194l-194 -350h199l-86 -164h-205l-189 -338h207l-88 -166h-211l-190 -348h-195l195 348h-195l-192 -348h-193l195 348h-199zM483 514h191l188 338h-192z" />
<glyph unicode="$" horiz-adv-x="1257" d="M18 231l181 215q105 -139 293 -190l69 319q-61 23 -105.5 43.5t-95.5 53.5t-83.5 69t-54 88t-21.5 113q0 85 37 164.5t103.5 142t169 100t224.5 37.5h8l41 187h193l-47 -209q217 -51 350 -199l-182 -209q-83 98 -228 144l-63 -287q62 -23 107.5 -43.5t98 -54t85.5 -70 t55.5 -88.5t22.5 -113q0 -94 -37.5 -179t-105 -149.5t-170.5 -102.5t-226 -38h-16l-39 -180h-193l45 201q-135 28 -244 89.5t-172 145.5zM508 995q0 -34 31 -60.5t92 -53.5l55 249q-76 -1 -127 -40.5t-51 -94.5zM678 233q92 4 140 50t48 104q0 37 -32.5 65.5t-94.5 55.5z " />
<glyph unicode="%" horiz-adv-x="1552" d="M156 0l1173 1366h156l-1176 -1366h-153zM168 989q0 174 111 285.5t268 111.5q136 0 231.5 -77t95.5 -205q0 -174 -111 -285.5t-267 -111.5q-137 0 -232.5 77t-95.5 205zM352 1006q0 -60 42 -100t108 -40q77 0 131.5 61.5t54.5 157.5q0 62 -41.5 102t-105.5 40 q-79 0 -134 -62t-55 -159zM758 260q0 174 111 285.5t268 111.5q136 0 231.5 -78t95.5 -206q0 -173 -111.5 -285.5t-267.5 -112.5q-137 0 -232 78.5t-95 206.5zM944 276q0 -62 41 -101.5t107 -39.5q77 0 131.5 62t54.5 159q0 60 -42 100t-106 40q-78 0 -132 -62t-54 -158z " />
<glyph unicode="&#x26;" horiz-adv-x="1325" d="M10 336q0 77 22 141.5t56.5 110t88 84.5t105.5 65t119 51q-34 109 -34 216q0 162 120.5 272t294.5 110q150 0 253.5 -72.5t103.5 -203.5q0 -50 -13.5 -93.5t-33 -76.5t-55 -63.5t-66.5 -50.5t-81 -42.5t-84.5 -35.5t-90.5 -33q35 -72 76 -140q81 -145 94 -165 q114 123 184 249l186 -116q-136 -191 -260 -310q25 -39 166 -233h-311q-33 42 -57 76q-172 -101 -340 -101q-95 0 -174 21.5t-140 64t-95 113t-34 162.5zM297 367q0 -89 56.5 -138t142.5 -49q85 0 184 60q-74 110 -115 184q-73 137 -98 192q-82 -45 -126 -104t-44 -145z M629 1006q0 -63 22 -134q125 43 189.5 90t64.5 123q0 55 -31 84t-81 29q-64 0 -114 -51.5t-50 -140.5z" />
<glyph unicode="'" horiz-adv-x="460" d="M231 768q17 414 19 455q1 70 47.5 116.5t114.5 46.5q52 0 88.5 -35.5t36.5 -90.5q0 -24 -15 -62l-176 -430h-115z" />
<glyph unicode="(" horiz-adv-x="608" d="M47 219q0 319 150 634.5t411 549.5l135 -139q-201 -241 -311 -527.5t-110 -589.5q0 -215 77 -446l-188 -109q-79 120 -121.5 285.5t-42.5 341.5z" />
<glyph unicode=")" horiz-adv-x="610" d="M-137 -268q201 242 311.5 527.5t110.5 588.5q0 212 -78 446l188 109q79 -120 121.5 -285.5t42.5 -341.5q0 -319 -150 -634.5t-411 -549.5z" />
<glyph unicode="*" horiz-adv-x="718" d="M156 1001l221 78l-176 123l88 103l162 -140l38 221h132l-64 -231l217 98l39 -118l-219 -78l174 -123l-90 -103l-162 140l-37 -221h-133l64 233l-217 -98z" />
<glyph unicode="+" horiz-adv-x="1032" d="M84 610l35 162h368l88 402h179l-88 -402h368l-37 -162h-368l-92 -415h-177l93 415h-369z" />
<glyph unicode="," horiz-adv-x="522" d="M-37 -172q63 30 120.5 76t80.5 96h-23q-53 0 -89 35t-36 98q0 71 56.5 123.5t126.5 52.5q66 0 111.5 -44.5t45.5 -123.5q0 -116 -86 -231.5t-215 -177.5z" />
<glyph unicode="-" horiz-adv-x="614" d="M37 385l47 221h491l-47 -221h-491z" />
<glyph unicode="." horiz-adv-x="526" d="M16 129q0 73 54.5 126.5t128.5 53.5q63 0 107 -45t44 -108q0 -73 -54 -127t-128 -54q-63 0 -107.5 45.5t-44.5 108.5z" />
<glyph unicode="/" horiz-adv-x="673" d="M-123 -41l805 1448h197l-807 -1448h-195z" />
<glyph unicode="0" horiz-adv-x="1269" d="M88 526q0 165 50.5 320.5t138 275t216 192t275.5 72.5q226 0 359 -144t133 -404q0 -165 -50 -321t-137 -276t-215.5 -193t-275.5 -73q-226 0 -360 145.5t-134 405.5zM383 512q0 -129 55 -204t170 -75q66 0 124 39t100 103t72.5 145t45.5 166.5t15 165.5q0 128 -55.5 202 t-170.5 74q-81 0 -150.5 -58.5t-113 -150.5t-68 -199t-24.5 -208z" />
<glyph unicode="1" horiz-adv-x="841" d="M117 934l526 432h254l-301 -1366h-291l217 991l-276 -231z" />
<glyph unicode="2" horiz-adv-x="1228" d="M-14 0l59 270q165 94 267.5 154t214.5 130t175.5 119.5t118.5 103t78 100.5t23 94q0 74 -68.5 116.5t-177.5 42.5q-196 0 -340 -122l-123 209q90 79 219.5 124t265.5 45q143 0 261 -44t193 -136t75 -217q0 -98 -50 -194t-147 -187.5t-223 -176.5t-295 -175h557l-55 -256 h-1028z" />
<glyph unicode="3" horiz-adv-x="1202" d="M-27 260l195 176q61 -96 174 -149.5t227 -53.5q116 0 179 53t63 136q0 143 -250 143q-124 0 -164 -4l58 262q23 -2 192 -2q122 0 194 38t72 120q0 68 -72 108.5t-198 40.5q-193 0 -332 -110l-104 199q87 78 208.5 123.5t256.5 45.5q247 0 393.5 -94.5t146.5 -261.5 q0 -88 -55.5 -163t-138.5 -119t-174 -56q115 -29 185.5 -102.5t70.5 -196.5q0 -119 -71 -215t-192 -149.5t-266 -53.5q-193 0 -358 76t-240 209z" />
<glyph unicode="4" horiz-adv-x="1222" d="M2 283l57 254l709 829h418l-182 -827h174l-56 -256h-176l-61 -283h-291l61 283h-653zM342 539h369l127 569z" />
<glyph unicode="5" horiz-adv-x="1245" d="M37 240l207 182q56 -90 150 -139.5t216 -49.5q117 0 187.5 64.5t70.5 159.5q0 86 -70 134t-188 48q-78 0 -135 -19t-115 -63l-188 76l162 733h938l-55 -256h-648l-71 -322q112 89 272 89q173 0 288.5 -103.5t115.5 -284.5q0 -104 -41.5 -198t-114.5 -164t-180.5 -111 t-231.5 -41q-391 0 -569 265z" />
<glyph unicode="6" horiz-adv-x="1245" d="M80 504q0 134 30.5 261.5t92.5 240t148.5 197.5t206 134t257.5 49q288 0 457 -184l-180 -207q-47 64 -125 98.5t-170 34.5q-72 0 -136.5 -28.5t-111.5 -76.5t-80.5 -106t-54.5 -124q-10 -22 -19 -54q59 61 156 102.5t199 41.5q187 0 310.5 -103t123.5 -274 q0 -143 -76.5 -265.5t-207.5 -194t-284 -71.5q-252 0 -394 139.5t-142 389.5zM365 475q0 -109 70.5 -175.5t180.5 -66.5q111 0 187 69t76 167q0 81 -75.5 130.5t-187.5 49.5q-135 0 -249 -102q-2 -16 -2 -72z" />
<glyph unicode="7" horiz-adv-x="1116" d="M127 0l731 1110h-674l56 256h1026l-45 -203l-760 -1163h-334z" />
<glyph unicode="8" horiz-adv-x="1241" d="M31 342q0 135 99.5 240.5t279.5 150.5q-89 39 -148 112t-59 163q0 78 31.5 142t84 107t122.5 72.5t145 43t153 13.5q100 0 193 -21.5t170.5 -63t123.5 -110t46 -155.5q0 -134 -96.5 -229.5t-257.5 -128.5q103 -54 165 -134t62 -175q0 -90 -46.5 -165.5t-125 -125 t-179 -76.5t-210.5 -27q-111 0 -208 22t-175.5 65t-124 115t-45.5 165zM340 395q0 -78 70.5 -120t187.5 -42q99 0 176.5 47t77.5 119q0 62 -65 108t-152 68q-128 -6 -211.5 -54.5t-83.5 -125.5zM494 973q0 -52 61 -95.5t135 -60.5q121 8 194.5 51.5t73.5 112.5q0 63 -68 104 t-169 41q-95 0 -161 -41.5t-66 -111.5z" />
<glyph unicode="9" horiz-adv-x="1245" d="M53 162l178 207q49 -64 127 -98.5t170 -34.5q72 0 135.5 28t110.5 76.5t81 106.5t56 124q14 31 17 54q-59 -61 -156 -102.5t-199 -41.5q-187 0 -309.5 103t-122.5 274q0 143 76.5 265.5t207 194t282.5 71.5q252 0 394 -139.5t142 -389.5q0 -134 -30.5 -261.5t-92 -240 t-147.5 -197.5t-205.5 -134.5t-257.5 -49.5q-290 0 -457 185zM444 895q0 -81 76 -130.5t189 -49.5q137 0 247 102q2 16 2 72q0 109 -70.5 175t-180.5 66q-112 0 -187.5 -68.5t-75.5 -166.5z" />
<glyph unicode=":" horiz-adv-x="503" d="M16 129q0 73 54.5 126.5t128.5 53.5q63 0 107 -45t44 -108q0 -73 -54 -127t-128 -54q-63 0 -107.5 45.5t-44.5 108.5zM170 825q0 73 54 127t128 54q63 0 106.5 -45.5t43.5 -108.5q0 -73 -54.5 -126.5t-128.5 -53.5q-63 0 -106 45t-43 108z" />
<glyph unicode=";" horiz-adv-x="522" d="M-37 -172q63 30 120.5 76t80.5 96h-23q-53 0 -89 35t-36 98q0 71 56.5 123.5t126.5 52.5q66 0 111.5 -44.5t45.5 -123.5q0 -116 -86 -231.5t-215 -177.5zM170 825q0 73 54 127t128 54q63 0 106.5 -45.5t43.5 -108.5q0 -73 -54.5 -126.5t-128.5 -53.5q-63 0 -106 45 t-43 108z" />
<glyph unicode="&#x3c;" horiz-adv-x="1032" d="M78 592l43 188l1003 408l-45 -201l-794 -311l657 -307l-41 -185z" />
<glyph unicode="=" horiz-adv-x="1032" d="M39 412l37 159h913l-35 -159h-915zM125 797l35 161h913l-35 -161h-913z" />
<glyph unicode="&#x3e;" horiz-adv-x="1032" d="M-12 184l45 201l796 307l-659 312l41 184l823 -408l-41 -188z" />
<glyph unicode="?" horiz-adv-x="933" d="M170 1233q181 153 416 153q185 0 308.5 -81.5t123.5 -221.5q0 -65 -19.5 -118.5t-52 -89.5t-73.5 -67.5t-83.5 -53t-83.5 -45.5t-73.5 -46t-52 -53.5t-19.5 -68.5q0 -32 23 -58l-238 -65q-35 62 -35 143q0 71 29.5 127t73.5 89.5t96 64.5t96 53.5t73.5 55.5t29.5 71 q0 51 -42 79.5t-124 28.5q-143 0 -250 -98zM217 129q0 73 54 126.5t128 53.5q63 0 106.5 -45t43.5 -108q0 -74 -53.5 -127.5t-126.5 -53.5q-63 0 -107.5 45.5t-44.5 108.5z" />
<glyph unicode="@" horiz-adv-x="1603" d="M113 500q0 160 67.5 309.5t178.5 258t260.5 174t306.5 65.5q144 0 266 -50t204.5 -135t128.5 -199.5t46 -242.5q0 -123 -38 -223t-98.5 -160t-130.5 -91.5t-139 -31.5q-86 0 -136 43.5t-62 108.5l-2 12q-54 -76 -133 -120t-162 -44q-147 0 -232.5 96t-85.5 248 q0 133 66 250t172.5 184.5t224.5 67.5q90 0 156 -37.5t100 -99.5l23 108h231l-104 -499q-7 -35 -7 -50q0 -45 21 -68.5t55 -23.5q32 0 64.5 19.5t62 57.5t48 104t18.5 149q0 245 -154 396t-411 151q-142 0 -275.5 -59.5t-231.5 -158t-157 -231.5t-59 -274q0 -159 74 -289.5 t206.5 -205.5t296.5 -75q194 0 373 113l43 -61q-200 -129 -426 -129q-183 0 -332 85t-233 232t-84 326zM592 539q0 -81 45.5 -131t122.5 -50q130 0 227 136l51 237q-18 41 -61 73t-105 32q-119 0 -199.5 -90t-80.5 -207z" />
<glyph unicode="A" horiz-adv-x="1400" d="M-119 0l828 1366h364l225 -1366h-315l-35 231h-586l-135 -231h-346zM500 487h426l-84 588z" />
<glyph unicode="B" horiz-adv-x="1357" d="M25 0l301 1366h663q171 0 271 -95.5t100 -232.5q0 -135 -92.5 -239.5t-218.5 -116.5q91 -24 143.5 -102t52.5 -172q0 -76 -27 -146t-81.5 -130t-149 -96t-217.5 -36h-745zM373 256h377q95 0 149.5 51.5t54.5 126.5q0 59 -40.5 96t-108.5 37h-365zM498 823h366 q97 0 141 47.5t44 116.5q0 52 -40.5 87.5t-97.5 35.5h-350z" />
<glyph unicode="C" horiz-adv-x="1406" d="M90 588q0 142 41.5 268.5t116 222.5t174 166.5t218 107t245.5 36.5q121 0 223.5 -31t175.5 -86t124.5 -122.5t82.5 -148.5l-279 -94q-39 107 -130 165t-212 58q-96 0 -183 -40t-151.5 -109t-102.5 -167t-38 -208q0 -163 104.5 -268t278.5 -105q88 0 176 43t146 115 l225 -151q-110 -139 -260.5 -202t-302.5 -63q-188 0 -340.5 74.5t-242 215.5t-89.5 323z" />
<glyph unicode="D" horiz-adv-x="1470" d="M25 0l301 1366h528q113 0 220 -42.5t189.5 -117.5t132.5 -186.5t50 -239.5q0 -112 -29.5 -219.5t-97.5 -210t-168 -179.5t-252 -124t-338 -47h-536zM373 256h241q121 0 222 40.5t168 109.5t104 160.5t37 193.5q0 150 -97 250t-247 100h-240z" />
<glyph unicode="E" horiz-adv-x="1193" d="M25 0l301 1366h966l-57 -256h-674l-63 -287h659l-55 -256h-662l-67 -311h674l-56 -256h-966z" />
<glyph unicode="F" horiz-adv-x="1169" d="M25 0l301 1366h966l-57 -256h-674l-63 -287h659l-55 -256h-662l-125 -567h-290z" />
<glyph unicode="G" horiz-adv-x="1474" d="M90 588q0 227 106 410.5t294 287t421 103.5q205 0 350.5 -97t213.5 -241l-267 -115q-36 86 -129 140t-209 54q-126 0 -235 -68t-174.5 -189t-65.5 -267q0 -160 104 -266.5t279 -106.5q152 0 273 105l36 164h-362l57 256h654l-119 -531q-101 -120 -244.5 -186t-310.5 -66 q-187 0 -339 73.5t-242.5 214.5t-90.5 325z" />
<glyph unicode="H" horiz-adv-x="1497" d="M25 0l301 1366h290l-116 -537h643l119 537h292l-301 -1366h-292l126 575h-645l-127 -575h-290z" />
<glyph unicode="I" horiz-adv-x="561" d="M25 0l301 1366h290l-301 -1366h-290z" />
<glyph unicode="J" horiz-adv-x="995" d="M-59 129l157 219q33 -52 91.5 -83.5t127.5 -31.5q97 0 158 59t84 161l201 913h293l-203 -917q-54 -243 -178 -358.5t-334 -115.5q-119 0 -226 39.5t-171 114.5z" />
<glyph unicode="K" horiz-adv-x="1302" d="M25 0l301 1366h290l-129 -586l596 586h375l-684 -641l420 -725h-342l-299 559l-143 -139l-95 -420h-290z" />
<glyph unicode="L" horiz-adv-x="1054" d="M12 0l301 1366h293l-246 -1110h578l-55 -256h-871z" />
<glyph unicode="M" horiz-adv-x="1751" d="M25 0l301 1366h397l143 -854l520 854h420l-301 -1366h-293l218 985l-603 -985h-127l-168 985l-217 -985h-290z" />
<glyph unicode="N" horiz-adv-x="1492" d="M25 0l301 1366h299l438 -870l194 870h291l-301 -1366h-280l-451 905l-201 -905h-290z" />
<glyph unicode="O" horiz-adv-x="1566" d="M90 588q0 165 61.5 313t166.5 255t253 170t314 63q189 0 340.5 -73.5t241 -214t89.5 -323.5q0 -132 -39 -254.5t-111 -221.5t-169 -172.5t-219.5 -114t-255.5 -40.5q-141 0 -264.5 43.5t-213.5 122t-142 194t-52 253.5zM395 606q0 -169 108 -271t275 -102q97 0 185 41 t151 111t100 167.5t37 205.5q0 169 -108.5 270.5t-276.5 101.5q-130 0 -238.5 -69.5t-170.5 -190t-62 -264.5z" />
<glyph unicode="P" horiz-adv-x="1280" d="M25 0l301 1366h624q162 0 271.5 -111t109.5 -268q0 -65 -17 -130.5t-59 -133t-104.5 -119t-162 -84.5t-222.5 -33h-342l-109 -487h-290zM479 743h303h2q108 0 176 60.5t68 152.5q0 68 -47.5 111t-122.5 43h-297z" />
<glyph unicode="Q" horiz-adv-x="1566" d="M90 588q0 165 61.5 313t166.5 255t253 170t314 63q189 0 340.5 -73.5t241 -214t89.5 -323.5q0 -194 -82 -361.5t-225 -277.5l70 -110l-234 -113l-65 100q-131 -41 -258 -41q-141 0 -264.5 43.5t-213.5 122t-142 194t-52 253.5zM395 606q0 -169 108 -271t275 -102 q42 0 99 11l-117 188l233 113l109 -172q70 72 109.5 171.5t39.5 213.5q0 169 -108.5 270.5t-276.5 101.5q-130 0 -238.5 -69.5t-170.5 -190t-62 -264.5z" />
<glyph unicode="R" horiz-adv-x="1316" d="M25 0l301 1366h583q112 0 207 -45.5t155 -135t60 -204.5q0 -182 -110 -313t-279 -162l191 -506h-324l-162 485h-225l-107 -485h-290zM479 741h303h2q112 0 178 58.5t66 152.5q0 67 -52.5 112.5t-121.5 45.5h-293z" />
<glyph unicode="S" horiz-adv-x="1228" d="M-2 231l180 215q71 -96 196 -154.5t265 -58.5q102 0 154.5 47t52.5 107q0 39 -36.5 70t-95.5 55t-130 48.5t-142 57t-130 73.5t-95.5 105.5t-36.5 145.5q0 85 37 164.5t104 142t169.5 100t224.5 37.5q164 0 309 -58t236 -163l-183 -209q-73 85 -184.5 129.5t-222.5 44.5 q-77 0 -130 -39.5t-53 -95.5q0 -36 37 -65.5t96 -53t130 -48.5t142 -58t130 -74.5t96 -106.5t37 -145q0 -94 -37.5 -179t-105 -149.5t-170.5 -102.5t-226 -38q-198 0 -364 70t-254 186z" />
<glyph unicode="T" horiz-adv-x="1191" d="M186 1110l56 256h1089l-55 -256h-399l-244 -1110h-293l246 1110h-400z" />
<glyph unicode="U" horiz-adv-x="1503" d="M135 453q0 37 10 94l181 819h295l-179 -813q-8 -24 -8 -68q2 -109 79 -181.5t216 -72.5q281 0 354 322l179 813h297l-183 -819q-28 -131 -75.5 -230.5t-123 -179t-188.5 -121t-260 -41.5q-287 0 -440.5 129.5t-153.5 348.5z" />
<glyph unicode="V" horiz-adv-x="1400" d="M182 1366h316l147 -1049l608 1049h346l-827 -1366h-364z" />
<glyph unicode="W" horiz-adv-x="1880" d="M193 1366h319l20 -987l478 987h227l41 -987l457 987h333l-690 -1366h-309l-33 938l-444 -938h-309z" />
<glyph unicode="X" horiz-adv-x="1368" d="M-117 0l660 719l-328 647h330l223 -453l399 453h367l-621 -682l351 -684h-330l-248 485l-438 -485h-365z" />
<glyph unicode="Y" horiz-adv-x="1320" d="M182 1366h316l217 -547l459 547h346l-699 -807l-125 -559h-290l122 559z" />
<glyph unicode="Z" horiz-adv-x="1212" d="M-25 0l52 236l821 874h-627l55 256h1027l-50 -233l-825 -877h645l-57 -256h-1041z" />
<glyph unicode="[" horiz-adv-x="573" d="M-102 -389l395 1778h442l-39 -175h-254l-317 -1429h254l-39 -174h-442z" />
<glyph unicode="\" horiz-adv-x="673" d="M201 1407h188l164 -1448h-188z" />
<glyph unicode="]" horiz-adv-x="573" d="M-160 -389l37 174h254l318 1429h-254l38 175h441l-395 -1778h-439z" />
<glyph unicode="^" horiz-adv-x="903" d="M78 682l471 684h190l164 -684h-182l-109 506l-331 -506h-203z" />
<glyph unicode="_" horiz-adv-x="1155" d="M-172 -256l39 174h1165l-39 -174h-1165z" />
<glyph unicode="`" horiz-adv-x="514" d="M207 1434h239l209 -295h-182z" />
<glyph unicode="a" horiz-adv-x="1200" d="M53 385q0 91 21.5 180.5t66 170.5t105.5 143t146 98.5t183 36.5q100 0 183 -41t133 -115l27 131h262l-219 -989h-263l29 123q-127 -148 -297 -148q-171 0 -274 108.5t-103 301.5zM326 438q0 -104 62 -167.5t157 -63.5q66 0 125.5 32.5t101.5 86.5l76 342q-33 52 -94.5 83 t-137.5 31q-125 0 -207.5 -102t-82.5 -242z" />
<glyph unicode="b" horiz-adv-x="1200" d="M18 0l301 1366h261l-111 -500q127 148 299 148q170 0 272.5 -108.5t102.5 -301.5q0 -113 -35 -223.5t-98.5 -202t-164.5 -147.5t-222 -56q-100 0 -183 41t-133 115l-28 -131h-261zM348 322q33 -52 94.5 -83.5t137.5 -31.5q126 0 208 102t82 242q0 105 -61.5 168 t-157.5 63q-65 0 -124.5 -32.5t-100.5 -85.5z" />
<glyph unicode="c" horiz-adv-x="1021" d="M57 426q0 161 76 296t208.5 213.5t291.5 78.5q145 0 246 -52.5t155 -142.5l-194 -149q-31 53 -85.5 82.5t-121.5 29.5q-136 0 -223.5 -100t-87.5 -242q0 -109 70 -171t177 -62q61 0 115 26.5t92 71.5l142 -172q-63 -68 -158.5 -113t-216.5 -45q-221 0 -353.5 124 t-132.5 327z" />
<glyph unicode="d" horiz-adv-x="1200" d="M53 385q0 91 21.5 180.5t66 170.5t105.5 143t146 98.5t183 36.5q100 0 183 -41t133 -115l110 508h263l-303 -1366h-263l29 123q-127 -148 -297 -148q-171 0 -274 108.5t-103 301.5zM326 438q0 -104 62 -167.5t157 -63.5q66 0 125.5 32.5t101.5 86.5l76 342 q-33 52 -94.5 83t-137.5 31q-125 0 -207.5 -102t-82.5 -242z" />
<glyph unicode="e" horiz-adv-x="1132" d="M57 420q0 160 73.5 296t205.5 217t293 81q195 0 319.5 -119t124.5 -322q0 -85 -20 -163h-736v-25q0 -72 73 -134.5t200 -62.5q69 0 137.5 19t112.5 53l80 -182q-71 -49 -164.5 -76t-186.5 -27q-234 0 -373 119.5t-139 325.5zM346 590h492h2q2 4 2 20q0 81 -59.5 136 t-170.5 55q-102 0 -176 -62.5t-90 -148.5z" />
<glyph unicode="f" horiz-adv-x="669" d="M78 0l168 762h-164l51 227h162l8 41q85 356 371 356q179 0 274 -98l-131 -153q-42 39 -110 39q-58 0 -90 -35t-52 -109l-10 -41h203l-51 -227h-201l-168 -762h-260z" />
<glyph unicode="g" horiz-adv-x="1198" d="M-45 -229l154 172q46 -63 133.5 -97t187.5 -34q229 0 281 254l20 94q-56 -72 -135 -112t-168 -40q-77 0 -142.5 23.5t-118 70t-82.5 126t-30 182.5q0 114 35.5 221.5t99 193t162 137.5t215.5 52q91 0 178.5 -42.5t141.5 -113.5l31 131h260l-205 -923q-24 -108 -68 -191.5 t-96.5 -134.5t-117.5 -83.5t-127 -45t-130 -12.5q-315 0 -479 172zM326 461q0 -100 62 -160.5t163 -60.5q63 0 122.5 31.5t100.5 82.5l70 308q-35 57 -99.5 88.5t-142.5 31.5q-120 0 -198 -93t-78 -228z" />
<glyph unicode="h" horiz-adv-x="1187" d="M18 0l301 1366h263l-113 -504q160 152 330 152q142 0 225.5 -68t83.5 -184q0 -32 -10 -82l-150 -680h-260l131 600q8 32 8 57q0 64 -46.5 94.5t-123.5 30.5q-115 0 -231 -116l-145 -666h-263z" />
<glyph unicode="i" horiz-adv-x="518" d="M18 0l220 989h260l-219 -989h-261zM266 1229q0 79 54.5 127.5t119.5 48.5q61 0 101.5 -38.5t40.5 -94.5q0 -79 -55 -127.5t-121 -48.5q-60 0 -100 38.5t-40 94.5z" />
<glyph unicode="j" horiz-adv-x="518" d="M-383 -317l109 184q46 -55 127 -55q121 0 157 161l228 1016h260l-226 -1016q-39 -180 -129.5 -277t-251.5 -97q-187 0 -274 84zM266 1229q0 79 54.5 127.5t119.5 48.5q61 0 101.5 -38.5t40.5 -94.5q0 -79 -55 -127.5t-121 -48.5q-60 0 -100 38.5t-40 94.5z" />
<glyph unicode="k" horiz-adv-x="1097" d="M18 0l301 1366h261l-179 -801l461 424h330l-492 -448l285 -541h-315l-183 387l-153 -133l-55 -254h-261z" />
<glyph unicode="l" horiz-adv-x="518" d="M18 0l301 1366h261l-301 -1366h-261z" />
<glyph unicode="m" horiz-adv-x="1746" d="M18 0l220 989h260l-29 -127q147 152 301 152q68 0 125 -22.5t88.5 -55t48.5 -63.5t17 -52v-2q34 41 65 71t73.5 60.5t92.5 47t104 16.5q119 0 202 -67t83 -185q0 -34 -12 -82l-150 -680h-262l135 606q6 30 6 51q0 59 -40.5 92t-100.5 33q-56 0 -109.5 -33t-95.5 -81 l-147 -668h-262l135 606q8 40 8 56q-2 55 -39.5 87.5t-105.5 32.5q-101 0 -203 -114l-147 -668h-261z" />
<glyph unicode="n" d="M18 0l220 989h260l-29 -127q160 152 330 152q142 0 225.5 -68t83.5 -184q0 -32 -10 -82l-150 -680h-262l133 600q8 36 8 57q0 64 -46.5 94.5t-123.5 30.5q-113 0 -231 -114l-147 -668h-261z" />
<glyph unicode="o" horiz-adv-x="1177" d="M55 426q0 114 43 221t117 188t182 130t230 49q231 0 361 -125.5t130 -325.5q0 -114 -43 -221t-117 -188t-182 -130t-231 -49q-231 0 -360.5 125t-129.5 326zM324 438q0 -107 62 -169t169 -62q127 0 210 103t83 241q0 107 -61.5 169t-168.5 62q-127 0 -210.5 -103 t-83.5 -241z" />
<glyph unicode="p" horiz-adv-x="1193" d="M-66 -377l304 1366h260l-29 -123q127 148 299 148q170 0 272.5 -108.5t102.5 -301.5q0 -113 -35 -223.5t-98.5 -202t-164.5 -147.5t-222 -56q-100 0 -183 41t-133 115l-112 -508h-261zM348 322q33 -52 94.5 -83.5t137.5 -31.5q126 0 208 102t82 242q0 105 -61.5 168 t-157.5 63q-65 0 -124.5 -32.5t-100.5 -85.5z" />
<glyph unicode="q" horiz-adv-x="1193" d="M53 385q0 91 21.5 180.5t66 170.5t105.5 143t146 98.5t183 36.5q100 0 183 -41t133 -115l27 131h262l-303 -1366h-263l113 500q-127 -148 -297 -148q-171 0 -274 108.5t-103 301.5zM326 438q0 -104 62 -167.5t157 -63.5q66 0 125.5 32.5t101.5 86.5l76 342 q-33 52 -94.5 83t-137.5 31q-125 0 -207.5 -102t-82.5 -242z" />
<glyph unicode="r" horiz-adv-x="737" d="M18 0l220 989h260l-29 -129q141 154 350 154l-57 -258q-48 12 -94 12q-69 0 -135 -33.5t-111 -85.5l-143 -649h-261z" />
<glyph unicode="s" horiz-adv-x="976" d="M-16 154l145 182q50 -59 148 -107.5t198 -48.5q64 0 103.5 30t39.5 73q0 36 -52 63t-126 50t-147.5 53.5t-125.5 89.5t-52 141q0 137 109 235.5t298 98.5q124 0 236 -43.5t184 -116.5l-135 -174q-38 49 -121.5 89t-169.5 40q-67 0 -105 -26t-38 -66q0 -24 28 -43.5 t72 -35t98 -32.5t108 -40.5t98 -54t72 -79.5t28 -110q0 -147 -116 -247t-312 -100q-137 0 -260 46.5t-205 132.5z" />
<glyph unicode="t" horiz-adv-x="692" d="M76 762l51 227h164l59 271h260l-59 -271h201l-52 -227h-200l-97 -434q-2 -12 -2 -35q0 -86 97 -86q47 0 71 20l9 -209q-59 -43 -162 -43q-137 0 -216 54t-79 161q0 35 8 68l111 504h-164z" />
<glyph unicode="u" d="M74 227q0 42 12 82l150 680h260l-131 -598q-9 -41 -9 -57q0 -64 46.5 -95.5t121.5 -31.5q117 0 234 117l147 665h260l-219 -989h-260l29 127q-160 -152 -330 -152q-143 0 -227 68.5t-84 183.5z" />
<glyph unicode="v" horiz-adv-x="1050" d="M96 989h271l104 -688l414 688h286l-616 -989h-281z" />
<glyph unicode="w" horiz-adv-x="1576" d="M109 989h262l37 -665l364 665h232l67 -665l334 665h281l-521 -989h-278l-62 674l-356 -674h-279z" />
<glyph unicode="x" horiz-adv-x="1032" d="M-111 0l463 508l-223 481h283l135 -303l272 303h299l-438 -481l242 -508h-281l-154 334l-301 -334h-297z" />
<glyph unicode="y" horiz-adv-x="1050" d="M-98 -377l86 225q32 -14 100 -14q41 0 69 15t54 53l61 94l-176 993h271l104 -688l414 688h286l-720 -1151q-81 -130 -169.5 -184.5t-213.5 -54.5q-96 0 -166 24z" />
<glyph unicode="z" horiz-adv-x="980" d="M-25 0l43 195l564 567h-437l50 227h800l-43 -186l-571 -576h450l-47 -227h-809z" />
<glyph unicode="{" horiz-adv-x="589" d="M-20 -127q0 37 8 64l80 352q4 24 4 37q0 45 -22 72.5t-60 27.5l33 147q56 0 90 38t47 100l78 350q37 165 138 246.5t253 81.5h123l-37 -175h-125q-63 0 -105 -38.5t-59 -112.5l-88 -399q-36 -153 -133 -183q59 -34 59 -114q0 -37 -8 -70l-80 -358q-4 -24 -4 -39 q0 -52 32.5 -83.5t82.5 -31.5h110l-41 -174h-92q-117 0 -200.5 74t-83.5 188z" />
<glyph unicode="|" horiz-adv-x="442" d="M176 -41v1448h174v-1448h-174z" />
<glyph unicode="}" horiz-adv-x="589" d="M-164 -389l39 174h123q128 0 164 152l90 399q31 150 133 184q-59 32 -59 113q0 36 8 69l78 359q4 24 4 39q0 52 -31.5 83t-81.5 31h-110l38 175h93q117 0 200.5 -74.5t83.5 -188.5q0 -39 -8 -63l-78 -352q-4 -24 -4 -37q0 -45 22 -73t58 -28l-33 -147q-108 0 -137 -137 l-78 -350q-37 -165 -138 -246.5t-251 -81.5h-125z" />
<glyph unicode="~" horiz-adv-x="1044" d="M133 864q106 500 387 500q60 0 102 -20t61.5 -52t31 -71t16 -77.5t10.5 -70.5t21 -52t41 -20q39 0 80 54t72.5 136t50.5 175l172 -20q-108 -502 -387 -502q-60 0 -101.5 20t-61 51.5t-31 70t-16 77t-10.5 70t-20.5 51.5t-40.5 20q-59 0 -116.5 -107t-86.5 -253z" />
<glyph unicode="&#xa1;" horiz-adv-x="522" d="M-90 -377l246 920h229l-160 -920h-315zM170 834q0 73 54 126.5t128 53.5q63 0 106.5 -45.5t43.5 -108.5q0 -73 -54.5 -126.5t-128.5 -53.5q-63 0 -106 45.5t-43 108.5z" />
<glyph unicode="&#xa2;" horiz-adv-x="1021" d="M57 426q0 156 72 288.5t198 212.5t279 87l33 143h188l-36 -164q163 -44 243 -174l-194 -149q-38 60 -103 90l-121 -549q94 18 160 94l142 -172q-139 -150 -355 -158l-39 -180h-188l45 201q-151 40 -237.5 154t-86.5 276zM322 440q0 -141 112 -202l119 534 q-104 -27 -167.5 -120t-63.5 -212z" />
<glyph unicode="&#xa3;" horiz-adv-x="1126" d="M25 184q124 56 204 149t80 193q0 17 -2 25h-250l37 166h162q-24 50 -34 72t-22 66.5t-12 86.5q0 91 42.5 173t115 141.5t171.5 94.5t208 35q176 0 308.5 -72.5t172.5 -201.5l-262 -108q-15 68 -72 106.5t-135 38.5q-98 0 -165.5 -67.5t-67.5 -170.5q0 -28 6.5 -56.5 t13 -46t20 -47t19.5 -44.5h291l-39 -166h-231q-14 -84 -71 -158t-120 -108q49 16 92 16q61 0 150.5 -34t142.5 -34q96 0 166 74l64 -231q-99 -103 -252 -103q-76 0 -161 22.5t-160.5 45t-127.5 22.5q-99 0 -229 -77z" />
<glyph unicode="&#xa4;" horiz-adv-x="1069" d="M23 283l157 129q-35 64 -49 109.5t-14 111.5q0 193 164 354l-76 100l65 54l80 -99q122 88 273 88q167 0 292 -116l160 131l51 -62l-159 -131q63 -104 63 -221q0 -187 -164 -354l78 -98l-70 -56l-75 101q-126 -91 -271 -91q-170 0 -297 121l-161 -135zM217 645 q0 -139 89 -226t229 -87q157 0 276 115.5t119 271.5q0 139 -89 226t-229 87q-157 0 -276 -115.5t-119 -271.5z" />
<glyph unicode="&#xa5;" horiz-adv-x="1320" d="M-12 236l37 159h469l36 164h-469l35 162h365l-277 645h316l217 -547l459 547h346l-559 -645h362l-37 -162h-465l-37 -164h465l-34 -159h-467l-52 -236h-290l51 236h-471z" />
<glyph unicode="&#xa6;" horiz-adv-x="442" d="M176 -41v647h174v-647h-174zM176 760v647h174v-647h-174z" />
<glyph unicode="&#xa7;" horiz-adv-x="991" d="M-66 6l146 154q57 -66 150 -105t192 -39q72 0 117 35t45 86q0 33 -27.5 59t-71 44t-96.5 36t-106 41.5t-96.5 53t-71 78t-27.5 110.5q0 102 67 178t195 111q-70 33 -109.5 89t-39.5 128q0 139 113 230t292 91q287 0 436 -149l-135 -143q-46 52 -125 81t-164 29 q-75 0 -118 -32t-43 -78q0 -32 27.5 -56.5t71.5 -41.5t97 -34t106.5 -40t97.5 -52.5t71.5 -77.5t27.5 -110q0 -101 -65 -183.5t-172 -119.5q125 -70 125 -203q0 -145 -117.5 -243.5t-302.5 -98.5q-153 0 -280 44.5t-210 127.5zM350 608q0 -52 45 -84t133 -61 q79 20 118.5 64.5t39.5 95.5q0 95 -141 139q-97 -13 -146 -55t-49 -99z" />
<glyph unicode="&#xa8;" horiz-adv-x="604" d="M113 1235q0 61 47.5 108.5t107.5 47.5q54 0 88.5 -35t34.5 -88q0 -62 -47 -109t-108 -47q-52 0 -87.5 35t-35.5 88zM545 1235q0 61 47.5 108.5t107.5 47.5q54 0 89.5 -35t35.5 -88q0 -61 -47.5 -108.5t-109.5 -47.5q-52 0 -87.5 35t-35.5 88z" />
<glyph unicode="&#xa9;" horiz-adv-x="1593" d="M131 684q0 192 94.5 355t257 257.5t353.5 94.5q192 0 355 -94.5t258 -257.5t95 -355q0 -143 -56 -274t-151 -226t-226 -151t-275 -56q-191 0 -353.5 95t-257 258t-94.5 354zM205 684q0 -170 85 -316t230.5 -231.5t315.5 -85.5q128 0 245.5 50.5t202.5 135.5t135.5 202.5 t50.5 244.5q0 171 -85.5 317t-231.5 231t-317 85q-170 0 -315.5 -85t-230.5 -231t-85 -317zM412 629q0 103 40 194.5t106 155t152.5 100.5t178.5 37q108 0 193 -41t135 -123l-78 -55q-75 137 -254 137q-93 0 -179.5 -50.5t-143 -145t-56.5 -207.5q0 -123 82 -210t217 -87 q65 0 126.5 27t106.5 71l49 -70q-133 -110 -282 -110q-178 0 -285.5 107t-107.5 270z" />
<glyph unicode="&#xaa;" horiz-adv-x="847" d="M158 924q0 169 100.5 286t245.5 117q146 0 213 -94l16 78h191l-144 -643h-190l16 80q-81 -97 -192 -97q-108 0 -182 72t-74 201zM354 946q0 -71 38.5 -108t101.5 -37q78 0 143 69l55 250q-21 27 -60 42.5t-81 15.5q-83 0 -140 -69t-57 -163z" />
<glyph unicode="&#xab;" horiz-adv-x="1079" d="M59 498l410 362h250l-418 -373l238 -358h-234zM449 498l409 362h248l-418 -373l238 -358h-232z" />
<glyph unicode="&#xac;" horiz-adv-x="1054" d="M125 797l35 161h913l-119 -546h-168l86 385h-747z" />
<glyph unicode="&#xad;" horiz-adv-x="614" d="M37 385l47 221h491l-47 -221h-491z" />
<glyph unicode="&#xae;" horiz-adv-x="1011" d="M172 952q0 181 127 307.5t307 126.5q119 0 219 -57.5t157.5 -157.5t57.5 -219q0 -180 -127.5 -307t-308.5 -127q-180 0 -306 127t-126 307zM238 952q0 -153 106.5 -260.5t259.5 -107.5q154 0 262.5 108t108.5 260q0 155 -108.5 262t-262.5 107t-260 -107t-106 -262z M385 702l109 498h190q64 0 104.5 -37t40.5 -94q0 -70 -50.5 -119t-112.5 -49l90 -199h-82l-86 197h-90l-43 -197h-70zM512 963h131q50 0 81.5 29t31.5 71q0 35 -22.5 55.5t-65.5 20.5h-117z" />
<glyph unicode="&#xaf;" horiz-adv-x="743" d="M158 1210l32 150h742l-33 -150h-741z" />
<glyph unicode="&#xb0;" horiz-adv-x="636" d="M176 1108q0 116 81 197t196 81q114 0 195 -81.5t81 -196.5q0 -114 -81 -194t-195 -80q-115 0 -196 80t-81 194zM319 1108q0 -56 37.5 -94.5t94.5 -38.5q56 0 96.5 39t40.5 94q0 57 -39.5 97t-95.5 40q-57 0 -95.5 -40t-38.5 -97z" />
<glyph unicode="&#xb1;" horiz-adv-x="1032" d="M-51 0l35 162h913l-35 -162h-913zM96 668l35 161h369l90 402h176l-88 -402h366l-34 -161h-369l-92 -416h-178l94 416h-369z" />
<glyph unicode="&#xb2;" horiz-adv-x="815" d="M174 862l35 152q318 184 424 267t106 157q0 48 -38 73t-99 25q-66 0 -127.5 -24.5t-101.5 -63.5l-82 131q60 54 146 84.5t171 30.5q145 0 239.5 -63.5t94.5 -174.5q0 -109 -108 -209.5t-336 -226.5h354l-33 -158h-645z" />
<glyph unicode="&#xb3;" horiz-adv-x="815" d="M186 997l123 121q39 -56 102.5 -84t133.5 -28q65 0 100 31t35 77q0 42 -48 65t-134 23q-56 0 -68 -2l33 156q50 -4 133 -4q71 0 109 25.5t38 70.5q0 42 -46.5 65t-114.5 23q-125 0 -213 -74l-68 123q58 50 137.5 79.5t161.5 29.5q155 0 249.5 -57.5t94.5 -159.5 q0 -82 -60.5 -141t-166.5 -66q70 -16 115 -62t45 -116q0 -96 -88.5 -170t-235.5 -74q-123 0 -221.5 40t-145.5 109z" />
<glyph unicode="&#xb4;" horiz-adv-x="514" d="M137 1139l340 295h244l-397 -295h-187z" />
<glyph unicode="&#xb6;" horiz-adv-x="919" d="M162 981q0 97 50.5 185t143 144t203.5 56h457l-348 -1571h-129l321 1444h-162l-319 -1444h-129l192 867q-116 0 -198 91t-82 228z" />
<glyph unicode="&#xb7;" horiz-adv-x="526" d="M96 489q0 73 54.5 126t128.5 53q63 0 106 -44.5t43 -107.5q0 -73 -54 -126.5t-126 -53.5q-64 0 -108 45t-44 108z" />
<glyph unicode="&#xb8;" horiz-adv-x="452" d="M-182 -315l71 96q78 -72 174 -72q46 0 73.5 20t27.5 52q0 22 -15.5 35.5t-44.5 13.5q-35 0 -61 -29l-82 54l98 168h129l-79 -127q25 20 63 20q52 0 86.5 -34t34.5 -93q0 -85 -66 -136.5t-166 -51.5q-78 0 -142 23.5t-101 60.5z" />
<glyph unicode="&#xb9;" horiz-adv-x="585" d="M213 1407l340 274h170l-180 -819h-199l123 559l-164 -135z" />
<glyph unicode="&#xba;" horiz-adv-x="829" d="M162 950q0 158 116 267.5t273 109.5q152 0 242 -83.5t90 -215.5q0 -159 -115.5 -268t-271.5 -109q-153 0 -243.5 83t-90.5 216zM356 944q0 -65 39 -103t105 -38q88 0 139 69t51 158q0 66 -38.5 103.5t-104.5 37.5q-88 0 -139.5 -69t-51.5 -158z" />
<glyph unicode="&#xbb;" horiz-adv-x="1079" d="M-23 129l418 373l-237 358h233l246 -368l-410 -363h-250zM367 129l417 373l-237 358h231l246 -368l-410 -363h-247z" />
<glyph unicode="&#xbc;" horiz-adv-x="1705" d="M143 1092l340 274h170l-180 -819h-199l123 559l-164 -135zM172 0l1174 1366h157l-1175 -1366h-156zM879 176l30 133l437 510h274l-109 -489h107l-33 -154h-108l-37 -176h-197l39 176h-403zM1110 330h207l69 315z" />
<glyph unicode="&#xbd;" horiz-adv-x="1775" d="M143 1092l340 274h170l-180 -819h-199l123 559l-164 -135zM172 0l1174 1366h157l-1175 -1366h-156zM944 0l35 152q319 184 424.5 266.5t105.5 156.5q0 48 -38 73.5t-99 25.5q-66 0 -127.5 -24.5t-101.5 -63.5l-82 131q60 54 145.5 84t171.5 30q145 0 239.5 -63t94.5 -174 q0 -109 -108 -209.5t-336 -226.5h354l-33 -158h-645z" />
<glyph unicode="&#xbe;" horiz-adv-x="1886" d="M117 682l123 121q40 -56 102.5 -84.5t132.5 -28.5q65 0 100 31.5t35 77.5q0 42 -48 65t-134 23q-56 0 -68 -2l33 155q50 -4 133 -4q71 0 109.5 26t38.5 71q0 42 -47 65t-115 23q-125 0 -213 -74l-68 123q58 50 137.5 79t161.5 29q155 0 249.5 -57.5t94.5 -159.5 q0 -82 -60.5 -141t-166.5 -66q70 -16 115 -62t45 -116q0 -96 -88.5 -170t-235.5 -74q-123 0 -221 40.5t-145 109.5zM352 0l1174 1366h157l-1175 -1366h-156zM1057 176l30 133l437 510h274l-108 -489h106l-33 -154h-108l-37 -176h-197l39 176h-403zM1288 330h207l70 315z" />
<glyph unicode="&#xbf;" horiz-adv-x="815" d="M-88 -96q0 74 25 133t65.5 97t89 69.5t97.5 57t89.5 50.5t65.5 59t25 76q0 34 -23 60l240 63q32 -57 32 -143q0 -61 -22 -110.5t-57 -83t-77 -61t-84.5 -50t-77.5 -44.5t-57 -50.5t-22 -61.5q0 -51 43 -79.5t125 -28.5q139 0 248 98l125 -201q-181 -153 -416 -153 q-185 0 -309.5 82.5t-124.5 220.5zM381 831q0 73 54 127t128 54q63 0 106.5 -45.5t43.5 -108.5q0 -73 -53.5 -126.5t-127.5 -53.5q-63 0 -107 45t-44 108z" />
<glyph unicode="&#xc0;" horiz-adv-x="1400" d="M-119 0l828 1366h364l225 -1366h-315l-35 231h-586l-135 -231h-346zM500 487h426l-84 588zM641 1786h240l209 -295h-183z" />
<glyph unicode="&#xc1;" horiz-adv-x="1400" d="M-119 0l828 1366h364l225 -1366h-315l-35 231h-586l-135 -231h-346zM500 487h426l-84 588zM750 1491l340 295h243l-397 -295h-186z" />
<glyph unicode="&#xc2;" horiz-adv-x="1400" d="M-119 0l828 1366h364l225 -1366h-315l-35 231h-586l-135 -231h-346zM500 487h426l-84 588zM616 1491l254 295h234l127 -295h-156l-110 182l-185 -182h-164z" />
<glyph unicode="&#xc3;" horiz-adv-x="1400" d="M-119 0l828 1366h364l225 -1366h-315l-35 231h-586l-135 -231h-346zM500 487h426l-84 588zM588 1499q27 136 86 205.5t162 69.5q40 0 71 -14t51 -34.5t38 -41t39.5 -34.5t47.5 -14q64 0 93 125h139q-29 -137 -88 -205.5t-162 -68.5q-40 0 -71 14.5t-51 34.5t-37.5 40.5 t-39 35t-47.5 14.5q-66 0 -92 -127h-139z" />
<glyph unicode="&#xc4;" horiz-adv-x="1400" d="M-119 0l828 1366h364l225 -1366h-315l-35 231h-586l-135 -231h-346zM500 487h426l-84 588zM590 1589q0 61 47.5 108.5t107.5 47.5q54 0 88.5 -35t34.5 -88q0 -62 -47 -109t-108 -47q-53 0 -88 35t-35 88zM1022 1589q0 61 48 108.5t108 47.5q54 0 89.5 -35t35.5 -88 q0 -61 -48 -108.5t-110 -47.5q-53 0 -88 35t-35 88z" />
<glyph unicode="&#xc5;" horiz-adv-x="1400" d="M-119 0l828 1366h364l225 -1366h-315l-35 231h-586l-135 -231h-346zM500 487h426l-84 588zM733 1614q0 95 70.5 165t165.5 70q88 0 142 -54t54 -142q0 -95 -70 -165.5t-165 -70.5q-88 0 -142.5 54.5t-54.5 142.5zM854 1626q0 -38 24 -63t62 -25q41 0 72.5 30.5t31.5 71.5 q0 39 -24 64t-62 25q-41 0 -72.5 -31t-31.5 -72z" />
<glyph unicode="&#xc6;" horiz-adv-x="1982" d="M-129 0l1133 1366h1083l-55 -256h-676l-62 -287h660l-58 -256h-659l-70 -311h676l-57 -256h-967l51 231h-471l-186 -231h-342zM594 487h334l125 574z" />
<glyph unicode="&#xc7;" horiz-adv-x="1406" d="M90 588q0 142 41.5 268.5t116 222.5t174 166.5t218 107t245.5 36.5q121 0 223.5 -31t175.5 -86t124.5 -122.5t82.5 -148.5l-279 -94q-39 107 -130 165t-212 58q-96 0 -183 -40t-151.5 -109t-102.5 -167t-38 -208q0 -163 104.5 -268t278.5 -105q88 0 176 43t146 115 l225 -151q-110 -139 -260.5 -202t-302.5 -63q-29 0 -41 2l-51 -81q25 20 63 20q53 0 87 -34t34 -93q0 -85 -65.5 -136.5t-165.5 -51.5q-78 0 -142.5 23.5t-101.5 60.5l72 96q78 -72 174 -72q46 0 73 20t27 52q0 22 -15 35.5t-44 13.5q-36 0 -62 -29l-82 54l80 137 q-228 44 -370 203.5t-142 392.5z" />
<glyph unicode="&#xc8;" horiz-adv-x="1193" d="M25 0l301 1366h966l-57 -256h-674l-63 -287h659l-55 -256h-662l-67 -311h674l-56 -256h-966zM559 1786h240l209 -295h-183z" />
<glyph unicode="&#xc9;" horiz-adv-x="1193" d="M25 0l301 1366h966l-57 -256h-674l-63 -287h659l-55 -256h-662l-67 -311h674l-56 -256h-966zM666 1491l340 295h243l-397 -295h-186z" />
<glyph unicode="&#xca;" horiz-adv-x="1193" d="M25 0l301 1366h966l-57 -256h-674l-63 -287h659l-55 -256h-662l-67 -311h674l-56 -256h-966zM530 1491l254 295h234l127 -295h-156l-110 182l-185 -182h-164z" />
<glyph unicode="&#xcb;" horiz-adv-x="1193" d="M25 0l301 1366h966l-57 -256h-674l-63 -287h659l-55 -256h-662l-67 -311h674l-56 -256h-966zM510 1589q0 61 48 108.5t108 47.5q54 0 88 -35t34 -88q0 -62 -47 -109t-108 -47q-53 0 -88 35t-35 88zM942 1589q0 61 48 108.5t108 47.5q54 0 89.5 -35t35.5 -88 q0 -61 -48 -108.5t-110 -47.5q-53 0 -88 35t-35 88z" />
<glyph unicode="&#xcc;" horiz-adv-x="561" d="M25 0l301 1366h290l-301 -1366h-290zM219 1786h240l209 -295h-183z" />
<glyph unicode="&#xcd;" horiz-adv-x="561" d="M25 0l301 1366h290l-301 -1366h-290zM334 1491l340 295h244l-398 -295h-186z" />
<glyph unicode="&#xce;" horiz-adv-x="561" d="M25 0l301 1366h290l-301 -1366h-290zM193 1491l253 295h234l127 -295h-156l-110 182l-185 -182h-163z" />
<glyph unicode="&#xcf;" horiz-adv-x="561" d="M25 0l301 1366h290l-301 -1366h-290zM170 1589q0 61 48 108.5t108 47.5q54 0 88.5 -35t34.5 -88q0 -62 -47.5 -109t-108.5 -47q-53 0 -88 35t-35 88zM602 1589q0 61 48 108.5t108 47.5q54 0 89.5 -35t35.5 -88q0 -61 -48 -108.5t-110 -47.5q-53 0 -88 35t-35 88z" />
<glyph unicode="&#xd0;" horiz-adv-x="1519" d="M33 567l51 234h168l125 565h528q113 0 220 -42.5t189.5 -117.5t132.5 -186.5t50 -239.5q0 -112 -29.5 -219.5t-97.5 -210t-168 -179.5t-252 -124t-338 -47h-536l125 567h-168zM424 256h246q159 1 280.5 70.5t183.5 183t62 250.5q0 150 -97 250t-247 100h-240l-69 -309 h305l-53 -234h-303z" />
<glyph unicode="&#xd1;" horiz-adv-x="1492" d="M25 0l301 1366h299l438 -870l194 870h291l-301 -1366h-280l-451 905l-201 -905h-290zM631 1499q27 136 86 205.5t162 69.5q40 0 71 -14t51 -34.5t38 -41t39.5 -34.5t47.5 -14q64 0 93 125h139q-29 -137 -88 -205.5t-162 -68.5q-40 0 -71 14.5t-51 34.5t-37.5 40.5t-39 35 t-47.5 14.5q-66 0 -92 -127h-139z" />
<glyph unicode="&#xd2;" horiz-adv-x="1566" d="M90 588q0 165 61.5 313t166.5 255t253 170t314 63q189 0 340.5 -73.5t241 -214t89.5 -323.5q0 -132 -39 -254.5t-111 -221.5t-169 -172.5t-219.5 -114t-255.5 -40.5q-141 0 -264.5 43.5t-213.5 122t-142 194t-52 253.5zM395 606q0 -169 108 -271t275 -102q97 0 185 41 t151 111t100 167.5t37 205.5q0 169 -108.5 270.5t-276.5 101.5q-130 0 -238.5 -69.5t-170.5 -190t-62 -264.5zM729 1786h240l209 -295h-183z" />
<glyph unicode="&#xd3;" horiz-adv-x="1566" d="M90 588q0 165 61.5 313t166.5 255t253 170t314 63q189 0 340.5 -73.5t241 -214t89.5 -323.5q0 -132 -39 -254.5t-111 -221.5t-169 -172.5t-219.5 -114t-255.5 -40.5q-141 0 -264.5 43.5t-213.5 122t-142 194t-52 253.5zM395 606q0 -169 108 -271t275 -102q97 0 185 41 t151 111t100 167.5t37 205.5q0 169 -108.5 270.5t-276.5 101.5q-130 0 -238.5 -69.5t-170.5 -190t-62 -264.5zM834 1491l340 295h243l-397 -295h-186z" />
<glyph unicode="&#xd4;" horiz-adv-x="1566" d="M90 588q0 165 61.5 313t166.5 255t253 170t314 63q189 0 340.5 -73.5t241 -214t89.5 -323.5q0 -132 -39 -254.5t-111 -221.5t-169 -172.5t-219.5 -114t-255.5 -40.5q-141 0 -264.5 43.5t-213.5 122t-142 194t-52 253.5zM395 606q0 -169 108 -271t275 -102q97 0 185 41 t151 111t100 167.5t37 205.5q0 169 -108.5 270.5t-276.5 101.5q-130 0 -238.5 -69.5t-170.5 -190t-62 -264.5zM700 1491l254 295h234l127 -295h-156l-110 182l-185 -182h-164z" />
<glyph unicode="&#xd5;" horiz-adv-x="1566" d="M90 588q0 165 61.5 313t166.5 255t253 170t314 63q189 0 340.5 -73.5t241 -214t89.5 -323.5q0 -132 -39 -254.5t-111 -221.5t-169 -172.5t-219.5 -114t-255.5 -40.5q-141 0 -264.5 43.5t-213.5 122t-142 194t-52 253.5zM395 606q0 -169 108 -271t275 -102q97 0 185 41 t151 111t100 167.5t37 205.5q0 169 -108.5 270.5t-276.5 101.5q-130 0 -238.5 -69.5t-170.5 -190t-62 -264.5zM672 1499q27 136 86 205.5t162 69.5q40 0 71 -14t51 -34.5t38 -41t39.5 -34.5t47.5 -14q64 0 93 125h139q-29 -137 -88 -205.5t-162 -68.5q-40 0 -71 14.5 t-51 34.5t-37.5 40.5t-39 35t-47.5 14.5q-66 0 -92 -127h-139z" />
<glyph unicode="&#xd6;" horiz-adv-x="1566" d="M90 588q0 165 61.5 313t166.5 255t253 170t314 63q189 0 340.5 -73.5t241 -214t89.5 -323.5q0 -132 -39 -254.5t-111 -221.5t-169 -172.5t-219.5 -114t-255.5 -40.5q-141 0 -264.5 43.5t-213.5 122t-142 194t-52 253.5zM395 606q0 -169 108 -271t275 -102q97 0 185 41 t151 111t100 167.5t37 205.5q0 169 -108.5 270.5t-276.5 101.5q-130 0 -238.5 -69.5t-170.5 -190t-62 -264.5zM676 1589q0 61 47.5 108.5t107.5 47.5q54 0 88.5 -35t34.5 -88q0 -62 -47 -109t-108 -47q-53 0 -88 35t-35 88zM1108 1589q0 61 48 108.5t108 47.5q54 0 89.5 -35 t35.5 -88q0 -61 -48 -108.5t-110 -47.5q-53 0 -88 35t-35 88z" />
<glyph unicode="&#xd7;" horiz-adv-x="1032" d="M84 399l360 295l-221 285l129 104l219 -284l359 293l100 -123l-358 -295l217 -285l-127 -102l-219 282l-359 -293z" />
<glyph unicode="&#xd8;" horiz-adv-x="1566" d="M31 0l194 199q-135 157 -135 389q0 165 61.5 313t166.5 255t253 170t314 63q232 0 403 -111l86 88h209l-180 -182q153 -163 153 -406q0 -132 -39 -254.5t-111 -221.5t-169 -172.5t-219.5 -114t-255.5 -40.5q-247 0 -424 123l-96 -98h-211zM395 606q0 -108 45 -190 l645 655q-92 59 -219 59q-130 0 -238.5 -69.5t-170.5 -190t-62 -264.5zM541 305q97 -72 237 -72q97 0 185 41t151 111t100 167.5t37 205.5q0 120 -59 211z" />
<glyph unicode="&#xd9;" horiz-adv-x="1503" d="M135 453q0 37 10 94l181 819h295l-179 -813q-8 -24 -8 -68q2 -109 79 -181.5t216 -72.5q281 0 354 322l179 813h297l-183 -819q-28 -131 -75.5 -230.5t-123 -179t-188.5 -121t-260 -41.5q-287 0 -440.5 129.5t-153.5 348.5zM696 1786h240l209 -295h-182z" />
<glyph unicode="&#xda;" horiz-adv-x="1503" d="M135 453q0 37 10 94l181 819h295l-179 -813q-8 -24 -8 -68q2 -109 79 -181.5t216 -72.5q281 0 354 322l179 813h297l-183 -819q-28 -131 -75.5 -230.5t-123 -179t-188.5 -121t-260 -41.5q-287 0 -440.5 129.5t-153.5 348.5zM803 1491l340 295h243l-397 -295h-186z" />
<glyph unicode="&#xdb;" horiz-adv-x="1503" d="M135 453q0 37 10 94l181 819h295l-179 -813q-8 -24 -8 -68q2 -109 79 -181.5t216 -72.5q281 0 354 322l179 813h297l-183 -819q-28 -131 -75.5 -230.5t-123 -179t-188.5 -121t-260 -41.5q-287 0 -440.5 129.5t-153.5 348.5zM676 1491l254 295h233l127 -295h-155l-111 182 l-184 -182h-164z" />
<glyph unicode="&#xdc;" horiz-adv-x="1503" d="M135 453q0 37 10 94l181 819h295l-179 -813q-8 -24 -8 -68q2 -109 79 -181.5t216 -72.5q281 0 354 322l179 813h297l-183 -819q-28 -131 -75.5 -230.5t-123 -179t-188.5 -121t-260 -41.5q-287 0 -440.5 129.5t-153.5 348.5zM645 1589q0 61 48 108.5t108 47.5 q54 0 88.5 -35t34.5 -88q0 -62 -47 -109t-109 -47q-52 0 -87.5 35t-35.5 88zM1077 1589q0 61 48 108.5t108 47.5q54 0 89.5 -35t35.5 -88q0 -61 -48 -108.5t-110 -47.5q-52 0 -87.5 35t-35.5 88z" />
<glyph unicode="&#xdd;" horiz-adv-x="1320" d="M182 1366h316l217 -547l459 547h346l-699 -807l-125 -559h-290l122 559zM715 1491l340 295h243l-397 -295h-186z" />
<glyph unicode="&#xde;" horiz-adv-x="1280" d="M25 0l301 1366h290l-47 -221h334q162 0 270.5 -111t108.5 -266q0 -70 -18.5 -138.5t-62 -135t-106.5 -116.5t-160.5 -81t-215.5 -31h-344l-60 -266h-290zM432 522h303q112 0 178 63t66 152q0 67 -48.5 110.5t-121.5 43.5h-297z" />
<glyph unicode="&#xdf;" horiz-adv-x="1316" d="M18 0l215 973q40 182 164 297.5t326 115.5q107 0 205.5 -34t163.5 -100.5t65 -149.5q0 -64 -26.5 -116t-66 -83t-85.5 -59.5t-85.5 -48t-66 -46.5t-26.5 -57q0 -27 33 -48.5t83 -35.5t108 -37.5t108 -51.5t83 -80t33 -120q0 -141 -117.5 -242.5t-300.5 -101.5 q-144 0 -247 44t-191 139l146 166q120 -140 301 -140q67 0 108 31t41 74q0 25 -24.5 45t-64 34.5t-87.5 29t-96 35.5t-87.5 47.5t-64 70.5t-24.5 100q0 58 19 105.5t48.5 79t66 57t73 44.5t66 36.5t48.5 38t19 43.5q0 45 -47.5 72.5t-122.5 27.5q-85 0 -141 -47.5 t-76 -134.5l-213 -973h-263z" />
<glyph unicode="&#xe0;" horiz-adv-x="1200" d="M53 385q0 91 21.5 180.5t66 170.5t105.5 143t146 98.5t183 36.5q100 0 183 -41t133 -115l27 131h262l-219 -989h-263l29 123q-127 -148 -297 -148q-171 0 -274 108.5t-103 301.5zM326 438q0 -104 62 -167.5t157 -63.5q66 0 125.5 32.5t101.5 86.5l76 342q-33 52 -94.5 83 t-137.5 31q-125 0 -207.5 -102t-82.5 -242zM416 1434h239l209 -295h-182z" />
<glyph unicode="&#xe1;" horiz-adv-x="1200" d="M53 385q0 91 21.5 180.5t66 170.5t105.5 143t146 98.5t183 36.5q100 0 183 -41t133 -115l27 131h262l-219 -989h-263l29 123q-127 -148 -297 -148q-171 0 -274 108.5t-103 301.5zM326 438q0 -104 62 -167.5t157 -63.5q66 0 125.5 32.5t101.5 86.5l76 342q-33 52 -94.5 83 t-137.5 31q-125 0 -207.5 -102t-82.5 -242zM524 1139l340 295h244l-397 -295h-187z" />
<glyph unicode="&#xe2;" horiz-adv-x="1200" d="M53 385q0 91 21.5 180.5t66 170.5t105.5 143t146 98.5t183 36.5q100 0 183 -41t133 -115l27 131h262l-219 -989h-263l29 123q-127 -148 -297 -148q-171 0 -274 108.5t-103 301.5zM326 438q0 -104 62 -167.5t157 -63.5q66 0 125.5 32.5t101.5 86.5l76 342q-33 52 -94.5 83 t-137.5 31q-125 0 -207.5 -102t-82.5 -242zM393 1139l254 295h234l127 -295h-156l-111 182l-184 -182h-164z" />
<glyph unicode="&#xe3;" horiz-adv-x="1200" d="M53 385q0 91 21.5 180.5t66 170.5t105.5 143t146 98.5t183 36.5q100 0 183 -41t133 -115l27 131h262l-219 -989h-263l29 123q-127 -148 -297 -148q-171 0 -274 108.5t-103 301.5zM326 438q0 -104 62 -167.5t157 -63.5q66 0 125.5 32.5t101.5 86.5l76 342q-33 52 -94.5 83 t-137.5 31q-125 0 -207.5 -102t-82.5 -242zM362 1147q27 136 86 205t162 69q40 0 71.5 -14t51.5 -34.5t38 -40.5t39.5 -34t47.5 -14q63 0 92 125h140q-29 -137 -88 -205.5t-162 -68.5q-40 0 -71 14.5t-51 34.5t-37.5 40.5t-39 35t-47.5 14.5q-66 0 -92 -127h-140z" />
<glyph unicode="&#xe4;" horiz-adv-x="1200" d="M53 385q0 91 21.5 180.5t66 170.5t105.5 143t146 98.5t183 36.5q100 0 183 -41t133 -115l27 131h262l-219 -989h-263l29 123q-127 -148 -297 -148q-171 0 -274 108.5t-103 301.5zM326 438q0 -104 62 -167.5t157 -63.5q66 0 125.5 32.5t101.5 86.5l76 342q-33 52 -94.5 83 t-137.5 31q-125 0 -207.5 -102t-82.5 -242zM369 1235q0 61 47.5 108.5t107.5 47.5q54 0 88.5 -35t34.5 -88q0 -62 -47 -109t-108 -47q-52 0 -87.5 35t-35.5 88zM801 1235q0 61 47.5 108.5t107.5 47.5q54 0 89.5 -35t35.5 -88q0 -61 -47.5 -108.5t-109.5 -47.5 q-52 0 -87.5 35t-35.5 88z" />
<glyph unicode="&#xe5;" horiz-adv-x="1200" d="M53 385q0 91 21.5 180.5t66 170.5t105.5 143t146 98.5t183 36.5q100 0 183 -41t133 -115l27 131h262l-219 -989h-263l29 123q-127 -148 -297 -148q-171 0 -274 108.5t-103 301.5zM326 438q0 -104 62 -167.5t157 -63.5q66 0 125.5 32.5t101.5 86.5l76 342q-33 52 -94.5 83 t-137.5 31q-125 0 -207.5 -102t-82.5 -242zM522 1303q0 95 70.5 165t165.5 70q88 0 142 -54.5t54 -142.5q0 -95 -70 -165t-165 -70q-88 0 -142.5 54.5t-54.5 142.5zM643 1315q0 -38 24 -63t62 -25q42 0 73.5 30.5t31.5 71.5q0 38 -24 63t-62 25q-42 0 -73.5 -30.5 t-31.5 -71.5z" />
<glyph unicode="&#xe6;" horiz-adv-x="1871" d="M53 385q0 114 35 224.5t98.5 201.5t164.5 147t222 56q100 0 184.5 -41.5t131.5 -114.5l29 131h262l-27 -115q133 140 299 140q174 0 267 -108t93 -314q0 -104 -20 -182h-731q0 -3 -1 -12.5t-1 -12.5q0 -71 73 -131.5t201 -60.5q66 0 133 19.5t113 53.5l80 -188 q-70 -48 -158 -75.5t-164 -27.5q-250 0 -342 187l-34 -162h-263l29 123q-127 -148 -297 -148q-172 0 -274.5 108.5t-102.5 301.5zM326 438q0 -104 62 -167.5t157 -63.5q131 0 227 119l76 342q-33 52 -94.5 83t-137.5 31q-125 0 -207.5 -102t-82.5 -242zM1087 590h492 q0 2 1 10t1 10q0 81 -57 136t-168 55q-100 0 -175.5 -62.5t-93.5 -148.5z" />
<glyph unicode="&#xe7;" horiz-adv-x="1021" d="M57 426q0 161 76 296t208.5 213.5t291.5 78.5q145 0 246 -52.5t155 -142.5l-194 -149q-31 53 -85.5 82.5t-121.5 29.5q-136 0 -223.5 -100t-87.5 -242q0 -109 70 -171t177 -62q61 0 115 26.5t92 71.5l142 -172q-63 -68 -158.5 -113t-216.5 -45h-15l-49 -79q25 20 64 20 q53 0 87 -34t34 -93q0 -85 -66 -136.5t-166 -51.5q-78 0 -142.5 23.5t-101.5 60.5l72 96q78 -72 174 -72q46 0 73.5 20t27.5 52q0 22 -15.5 35.5t-44.5 13.5q-35 0 -61 -29l-82 54l78 135q-163 34 -258 150t-95 286z" />
<glyph unicode="&#xe8;" horiz-adv-x="1132" d="M57 420q0 160 73.5 296t205.5 217t293 81q195 0 319.5 -119t124.5 -322q0 -85 -20 -163h-736v-25q0 -72 73 -134.5t200 -62.5q69 0 137.5 19t112.5 53l80 -182q-71 -49 -164.5 -76t-186.5 -27q-234 0 -373 119.5t-139 325.5zM346 590h492h2q2 4 2 20q0 81 -59.5 136 t-170.5 55q-102 0 -176 -62.5t-90 -148.5zM440 1434h240l209 -295h-182z" />
<glyph unicode="&#xe9;" horiz-adv-x="1132" d="M57 420q0 160 73.5 296t205.5 217t293 81q195 0 319.5 -119t124.5 -322q0 -85 -20 -163h-736v-25q0 -72 73 -134.5t200 -62.5q69 0 137.5 19t112.5 53l80 -182q-71 -49 -164.5 -76t-186.5 -27q-234 0 -373 119.5t-139 325.5zM346 590h492h2q2 4 2 20q0 81 -59.5 136 t-170.5 55q-102 0 -176 -62.5t-90 -148.5zM553 1139l340 295h244l-398 -295h-186z" />
<glyph unicode="&#xea;" horiz-adv-x="1132" d="M57 420q0 160 73.5 296t205.5 217t293 81q195 0 319.5 -119t124.5 -322q0 -85 -20 -163h-736v-25q0 -72 73 -134.5t200 -62.5q69 0 137.5 19t112.5 53l80 -182q-71 -49 -164.5 -76t-186.5 -27q-234 0 -373 119.5t-139 325.5zM346 590h492h2q2 4 2 20q0 81 -59.5 136 t-170.5 55q-102 0 -176 -62.5t-90 -148.5zM416 1139l254 295h233l127 -295h-156l-110 182l-184 -182h-164z" />
<glyph unicode="&#xeb;" horiz-adv-x="1132" d="M57 420q0 160 73.5 296t205.5 217t293 81q195 0 319.5 -119t124.5 -322q0 -85 -20 -163h-736v-25q0 -72 73 -134.5t200 -62.5q69 0 137.5 19t112.5 53l80 -182q-71 -49 -164.5 -76t-186.5 -27q-234 0 -373 119.5t-139 325.5zM346 590h492h2q2 4 2 20q0 81 -59.5 136 t-170.5 55q-102 0 -176 -62.5t-90 -148.5zM391 1235q0 61 48 108.5t108 47.5q54 0 88.5 -35t34.5 -88q0 -62 -47 -109t-109 -47q-52 0 -87.5 35t-35.5 88zM823 1235q0 61 48 108.5t108 47.5q54 0 89.5 -35t35.5 -88q0 -61 -48 -108.5t-110 -47.5q-52 0 -87.5 35t-35.5 88z " />
<glyph unicode="&#xec;" horiz-adv-x="518" d="M18 0l220 989h260l-219 -989h-261zM119 1434h239l209 -295h-182z" />
<glyph unicode="&#xed;" horiz-adv-x="518" d="M18 0l220 989h260l-219 -989h-261zM229 1139l340 295h244l-397 -295h-187z" />
<glyph unicode="&#xee;" horiz-adv-x="518" d="M18 0l220 989h260l-219 -989h-261zM94 1139l254 295h234l127 -295h-156l-111 182l-184 -182h-164z" />
<glyph unicode="&#xef;" horiz-adv-x="518" d="M18 0l220 989h260l-219 -989h-261zM70 1235q0 61 47.5 108.5t107.5 47.5q54 0 88.5 -35t34.5 -88q0 -62 -47 -109t-108 -47q-53 0 -88 35t-35 88zM502 1235q0 61 47.5 108.5t107.5 47.5q54 0 89.5 -35t35.5 -88q0 -61 -47.5 -108.5t-109.5 -47.5q-53 0 -88 35t-35 88z " />
<glyph unicode="&#xf0;" horiz-adv-x="1177" d="M51 406q0 147 65.5 270.5t180 194.5t252.5 71q118 0 205 -57t131 -166q-40 169 -242 371l-330 -97l-24 121l248 74q-18 15 -111 88l184 190q134 -103 219 -192l226 67l26 -120l-161 -50q210 -263 210 -544q0 -132 -40.5 -250.5t-113.5 -207.5t-183 -141.5t-242 -52.5 q-225 0 -362.5 118.5t-137.5 312.5zM319 420q0 -99 61.5 -156t174.5 -57q121 0 202 85.5t81 211.5q0 86 -64 147.5t-180 61.5q-117 0 -196 -85t-79 -208z" />
<glyph unicode="&#xf1;" d="M33 0l219 989h260l-29 -127q160 152 330 152q142 0 225.5 -68t83.5 -184q0 -32 -10 -82l-149 -680h-263l134 600q8 36 8 57q0 64 -46.5 94.5t-123.5 30.5q-114 0 -232 -114l-147 -668h-260zM403 1147q27 136 86 205t162 69q40 0 71.5 -14t51.5 -34.5t38 -40.5t39.5 -34 t47.5 -14q63 0 92 125h139q-29 -137 -87.5 -205.5t-161.5 -68.5q-40 0 -71 14.5t-51 34.5t-37.5 40.5t-39 35t-47.5 14.5q-66 0 -92 -127h-140z" />
<glyph unicode="&#xf2;" horiz-adv-x="1177" d="M55 426q0 114 43 221t117 188t182 130t230 49q231 0 361 -125.5t130 -325.5q0 -114 -43 -221t-117 -188t-182 -130t-231 -49q-231 0 -360.5 125t-129.5 326zM324 438q0 -107 62 -169t169 -62q127 0 210 103t83 241q0 107 -61.5 169t-168.5 62q-127 0 -210.5 -103 t-83.5 -241zM451 1434h239l209 -295h-182z" />
<glyph unicode="&#xf3;" horiz-adv-x="1177" d="M55 426q0 114 43 221t117 188t182 130t230 49q231 0 361 -125.5t130 -325.5q0 -114 -43 -221t-117 -188t-182 -130t-231 -49q-231 0 -360.5 125t-129.5 326zM324 438q0 -107 62 -169t169 -62q127 0 210 103t83 241q0 107 -61.5 169t-168.5 62q-127 0 -210.5 -103 t-83.5 -241zM559 1139l340 295h244l-398 -295h-186z" />
<glyph unicode="&#xf4;" horiz-adv-x="1177" d="M55 426q0 114 43 221t117 188t182 130t230 49q231 0 361 -125.5t130 -325.5q0 -114 -43 -221t-117 -188t-182 -130t-231 -49q-231 0 -360.5 125t-129.5 326zM324 438q0 -107 62 -169t169 -62q127 0 210 103t83 241q0 107 -61.5 169t-168.5 62q-127 0 -210.5 -103 t-83.5 -241zM424 1139l254 295h233l127 -295h-155l-111 182l-184 -182h-164z" />
<glyph unicode="&#xf5;" horiz-adv-x="1177" d="M55 426q0 114 43 221t117 188t182 130t230 49q231 0 361 -125.5t130 -325.5q0 -114 -43 -221t-117 -188t-182 -130t-231 -49q-231 0 -360.5 125t-129.5 326zM324 438q0 -107 62 -169t169 -62q127 0 210 103t83 241q0 107 -61.5 169t-168.5 62q-127 0 -210.5 -103 t-83.5 -241zM397 1147q27 136 86 205t162 69q40 0 71.5 -14t51.5 -34.5t38 -40.5t39.5 -34t47.5 -14q63 0 92 125h139q-29 -137 -88 -205.5t-162 -68.5q-40 0 -71 14.5t-50.5 34.5t-37 40.5t-39 35t-47.5 14.5q-66 0 -92 -127h-140z" />
<glyph unicode="&#xf6;" horiz-adv-x="1177" d="M55 426q0 114 43 221t117 188t182 130t230 49q231 0 361 -125.5t130 -325.5q0 -114 -43 -221t-117 -188t-182 -130t-231 -49q-231 0 -360.5 125t-129.5 326zM324 438q0 -107 62 -169t169 -62q127 0 210 103t83 241q0 107 -61.5 169t-168.5 62q-127 0 -210.5 -103 t-83.5 -241zM399 1235q0 61 48 108.5t108 47.5q54 0 88.5 -35t34.5 -88q0 -62 -47 -109t-109 -47q-52 0 -87.5 35t-35.5 88zM831 1235q0 61 48 108.5t108 47.5q54 0 89.5 -35t35.5 -88q0 -61 -48 -108.5t-110 -47.5q-52 0 -87.5 35t-35.5 88z" />
<glyph unicode="&#xf7;" horiz-adv-x="1046" d="M84 610l35 162h928l-35 -162h-928zM358 311q0 55 40 95t96 40q47 0 80.5 -33.5t33.5 -80.5q0 -55 -40.5 -95t-96.5 -40q-47 0 -80 34t-33 80zM520 1044q0 56 40 96t95 40q47 0 81 -34.5t34 -80.5q0 -55 -40.5 -95t-96.5 -40q-46 0 -79.5 34t-33.5 80z" />
<glyph unicode="&#xf8;" horiz-adv-x="1177" d="M-33 0l168 156q-80 112 -80 270q0 114 43 221t117 188t182 130t230 49q196 0 323 -94l76 69h174l-166 -153q84 -113 84 -273q0 -114 -43 -221t-117 -188t-182 -130t-231 -49q-201 0 -330 99l-78 -74h-170zM324 438q0 -54 14 -92l424 395q-56 41 -144 41 q-127 0 -210.5 -103t-83.5 -241zM406 250q58 -43 149 -43q127 0 210 103t83 241q0 47 -17 96z" />
<glyph unicode="&#xf9;" d="M74 227q0 42 12 82l150 680h260l-131 -598q-9 -41 -9 -57q0 -64 46.5 -95.5t121.5 -31.5q117 0 234 117l147 665h260l-219 -989h-260l29 127q-160 -152 -330 -152q-143 0 -227 68.5t-84 183.5zM457 1434h239l209 -295h-182z" />
<glyph unicode="&#xfa;" d="M74 227q0 42 12 82l150 680h260l-131 -598q-9 -41 -9 -57q0 -64 46.5 -95.5t121.5 -31.5q117 0 234 117l147 665h260l-219 -989h-260l29 127q-160 -152 -330 -152q-143 0 -227 68.5t-84 183.5zM565 1139l340 295h244l-397 -295h-187z" />
<glyph unicode="&#xfb;" d="M74 227q0 42 12 82l150 680h260l-131 -598q-9 -41 -9 -57q0 -64 46.5 -95.5t121.5 -31.5q117 0 234 117l147 665h260l-219 -989h-260l29 127q-160 -152 -330 -152q-143 0 -227 68.5t-84 183.5zM430 1139l254 295h234l126 -295h-155l-111 182l-184 -182h-164z" />
<glyph unicode="&#xfc;" d="M74 227q0 42 12 82l150 680h260l-131 -598q-9 -41 -9 -57q0 -64 46.5 -95.5t121.5 -31.5q117 0 234 117l147 665h260l-219 -989h-260l29 127q-160 -152 -330 -152q-143 0 -227 68.5t-84 183.5zM410 1235q0 61 47.5 108.5t107.5 47.5q54 0 88.5 -35t34.5 -88 q0 -62 -47 -109t-109 -47q-52 0 -87 35t-35 88zM842 1235q0 61 47.5 108.5t107.5 47.5q54 0 89.5 -35t35.5 -88q0 -61 -47.5 -108.5t-109.5 -47.5q-53 0 -88 35t-35 88z" />
<glyph unicode="&#xfd;" horiz-adv-x="1050" d="M-98 -377l86 225q32 -14 100 -14q41 0 69 15t54 53l61 94l-176 993h271l104 -688l414 688h286l-720 -1151q-81 -130 -169.5 -184.5t-213.5 -54.5q-96 0 -166 24zM496 1139l340 295h243l-397 -295h-186z" />
<glyph unicode="&#xfe;" horiz-adv-x="1193" d="M-66 -377l385 1743h261l-111 -500q127 148 299 148q170 0 272.5 -108.5t102.5 -301.5q0 -113 -35 -223.5t-98.5 -202t-164.5 -147.5t-222 -56q-100 0 -183 41t-133 115l-112 -508h-261zM348 322q33 -52 94.5 -83.5t137.5 -31.5q126 0 208 102t82 242q0 105 -61.5 168 t-157.5 63q-65 0 -124.5 -32.5t-100.5 -85.5z" />
<glyph unicode="&#xff;" horiz-adv-x="1050" d="M-98 -377l86 225q32 -14 100 -14q41 0 69 15t54 53l61 94l-176 993h271l104 -688l414 688h286l-720 -1151q-81 -130 -169.5 -184.5t-213.5 -54.5q-96 0 -166 24zM336 1235q0 61 48 108.5t108 47.5q54 0 88 -35t34 -88q0 -62 -47 -109t-108 -47q-53 0 -88 35t-35 88z M768 1235q0 61 48 108.5t108 47.5q54 0 89.5 -35t35.5 -88q0 -61 -48 -108.5t-110 -47.5q-53 0 -88 35t-35 88z" />
<glyph unicode="&#x100;" horiz-adv-x="1400" d="M-119 0l828 1366h364l225 -1366h-315l-35 231h-586l-135 -231h-346zM500 487h426l-84 588zM555 1530l33 149h741l-33 -149h-741z" />
<glyph unicode="&#x101;" horiz-adv-x="1200" d="M53 385q0 91 21.5 180.5t66 170.5t105.5 143t146 98.5t183 36.5q100 0 183 -41t133 -115l27 131h262l-219 -989h-263l29 123q-127 -148 -297 -148q-171 0 -274 108.5t-103 301.5zM326 438q0 -104 62 -167.5t157 -63.5q66 0 125.5 32.5t101.5 86.5l76 342q-33 52 -94.5 83 t-137.5 31q-125 0 -207.5 -102t-82.5 -242zM332 1176l33 149h741l-33 -149h-741z" />
<glyph unicode="&#x102;" horiz-adv-x="1400" d="M-119 0l828 1366h364l225 -1366h-315l-35 231h-586l-135 -231h-346zM500 487h426l-84 588zM592 1645l131 96q30 -59 85.5 -93t131.5 -34q151 0 272 127l99 -96q-81 -85 -185 -133t-213 -48q-107 0 -191.5 48.5t-129.5 132.5z" />
<glyph unicode="&#x103;" horiz-adv-x="1200" d="M53 385q0 91 21.5 180.5t66 170.5t105.5 143t146 98.5t183 36.5q100 0 183 -41t133 -115l27 131h262l-219 -989h-263l29 123q-127 -148 -297 -148q-171 0 -274 108.5t-103 301.5zM326 438q0 -104 62 -167.5t157 -63.5q66 0 125.5 32.5t101.5 86.5l76 342q-33 52 -94.5 83 t-137.5 31q-125 0 -207.5 -102t-82.5 -242zM371 1319l131 96q30 -59 85.5 -93t131.5 -34q151 0 272 127l99 -96q-81 -84 -185 -132t-213 -48q-108 0 -192 48t-129 132z" />
<glyph unicode="&#x104;" horiz-adv-x="1400" d="M-119 0l828 1366h364l225 -1366q-192 -83 -192 -203q0 -33 19.5 -50t52.5 -17q55 0 96 67l88 -73q-81 -105 -193 -105q-81 0 -136.5 41t-55.5 115q0 131 123 225h-117l-35 231h-586l-135 -231h-346zM500 487h426l-84 588z" />
<glyph unicode="&#x105;" horiz-adv-x="1200" d="M53 385q0 91 21.5 180.5t66 170.5t105.5 143t146 98.5t183 36.5q100 0 183 -41t133 -115l27 131h262l-219 -989q-193 -83 -193 -203q0 -33 19.5 -50t52.5 -17q55 0 96 67l88 -73q-81 -105 -193 -105q-81 0 -136.5 41t-55.5 115q0 131 123 225h-64l29 123 q-127 -148 -297 -148q-171 0 -274 108.5t-103 301.5zM326 438q0 -104 62 -167.5t157 -63.5q66 0 125.5 32.5t101.5 86.5l76 342q-33 52 -94.5 83t-137.5 31q-125 0 -207.5 -102t-82.5 -242z" />
<glyph unicode="&#x106;" horiz-adv-x="1406" d="M90 588q0 142 41.5 268.5t116 222.5t174 166.5t218 107t245.5 36.5q121 0 223.5 -31t175.5 -86t124.5 -122.5t82.5 -148.5l-279 -94q-39 107 -130 165t-212 58q-96 0 -183 -40t-151.5 -109t-102.5 -167t-38 -208q0 -163 104.5 -268t278.5 -105q88 0 176 43t146 115 l225 -151q-110 -139 -260.5 -202t-302.5 -63q-188 0 -340.5 74.5t-242 215.5t-89.5 323zM844 1491l340 295h243l-397 -295h-186z" />
<glyph unicode="&#x107;" horiz-adv-x="1021" d="M57 426q0 161 76 296t208.5 213.5t291.5 78.5q145 0 246 -52.5t155 -142.5l-194 -149q-31 53 -85.5 82.5t-121.5 29.5q-136 0 -223.5 -100t-87.5 -242q0 -109 70 -171t177 -62q61 0 115 26.5t92 71.5l142 -172q-63 -68 -158.5 -113t-216.5 -45q-221 0 -353.5 124 t-132.5 327zM573 1139l340 295h244l-397 -295h-187z" />
<glyph unicode="&#x108;" horiz-adv-x="1406" d="M90 588q0 142 41.5 268.5t116 222.5t174 166.5t218 107t245.5 36.5q121 0 223.5 -31t175.5 -86t124.5 -122.5t82.5 -148.5l-279 -94q-39 107 -130 165t-212 58q-96 0 -183 -40t-151.5 -109t-102.5 -167t-38 -208q0 -163 104.5 -268t278.5 -105q88 0 176 43t146 115 l225 -151q-110 -139 -260.5 -202t-302.5 -63q-188 0 -340.5 74.5t-242 215.5t-89.5 323zM709 1491l254 295h233l127 -295h-156l-110 182l-185 -182h-163z" />
<glyph unicode="&#x109;" horiz-adv-x="1021" d="M57 426q0 161 76 296t208.5 213.5t291.5 78.5q145 0 246 -52.5t155 -142.5l-194 -149q-31 53 -85.5 82.5t-121.5 29.5q-136 0 -223.5 -100t-87.5 -242q0 -109 70 -171t177 -62q61 0 115 26.5t92 71.5l142 -172q-63 -68 -158.5 -113t-216.5 -45q-221 0 -353.5 124 t-132.5 327zM438 1139l254 295h234l127 -295h-156l-111 182l-184 -182h-164z" />
<glyph unicode="&#x10a;" horiz-adv-x="1406" d="M90 588q0 142 41.5 268.5t116 222.5t174 166.5t218 107t245.5 36.5q121 0 223.5 -31t175.5 -86t124.5 -122.5t82.5 -148.5l-279 -94q-39 107 -130 165t-212 58q-96 0 -183 -40t-151.5 -109t-102.5 -167t-38 -208q0 -163 104.5 -268t278.5 -105q88 0 176 43t146 115 l225 -151q-110 -139 -260.5 -202t-302.5 -63q-188 0 -340.5 74.5t-242 215.5t-89.5 323zM907 1589q0 61 48 108.5t110 47.5q53 0 88 -35.5t35 -89.5q0 -61 -48 -107.5t-110 -46.5q-52 0 -87.5 35t-35.5 88z" />
<glyph unicode="&#x10b;" horiz-adv-x="1021" d="M57 426q0 161 76 296t208.5 213.5t291.5 78.5q145 0 246 -52.5t155 -142.5l-194 -149q-31 53 -85.5 82.5t-121.5 29.5q-136 0 -223.5 -100t-87.5 -242q0 -109 70 -171t177 -62q61 0 115 26.5t92 71.5l142 -172q-63 -68 -158.5 -113t-216.5 -45q-221 0 -353.5 124 t-132.5 327zM621 1251q0 61 47.5 108.5t109.5 47.5q53 0 88 -35.5t35 -89.5q0 -61 -48 -107.5t-110 -46.5q-52 0 -87 35t-35 88z" />
<glyph unicode="&#x10c;" horiz-adv-x="1406" d="M90 588q0 142 41.5 268.5t116 222.5t174 166.5t218 107t245.5 36.5q121 0 223.5 -31t175.5 -86t124.5 -122.5t82.5 -148.5l-279 -94q-39 107 -130 165t-212 58q-96 0 -183 -40t-151.5 -109t-102.5 -167t-38 -208q0 -163 104.5 -268t278.5 -105q88 0 176 43t146 115 l225 -151q-110 -139 -260.5 -202t-302.5 -63q-188 0 -340.5 74.5t-242 215.5t-89.5 323zM774 1786h156l110 -182l185 182h164l-252 -295h-234z" />
<glyph unicode="&#x10d;" horiz-adv-x="1021" d="M57 426q0 161 76 296t208.5 213.5t291.5 78.5q145 0 246 -52.5t155 -142.5l-194 -149q-31 53 -85.5 82.5t-121.5 29.5q-136 0 -223.5 -100t-87.5 -242q0 -109 70 -171t177 -62q61 0 115 26.5t92 71.5l142 -172q-63 -68 -158.5 -113t-216.5 -45q-221 0 -353.5 124 t-132.5 327zM504 1434h155l111 -183l184 183h164l-252 -295h-233z" />
<glyph unicode="&#x10e;" horiz-adv-x="1470" d="M25 0l301 1366h528q113 0 220 -42.5t189.5 -117.5t132.5 -186.5t50 -239.5q0 -112 -29.5 -219.5t-97.5 -210t-168 -179.5t-252 -124t-338 -47h-536zM373 256h241q121 0 222 40.5t168 109.5t104 160.5t37 193.5q0 150 -97 250t-247 100h-240zM719 1786h155l111 -182 l184 182h164l-252 -295h-233z" />
<glyph unicode="&#x10f;" horiz-adv-x="1413" d="M53 385q0 91 21.5 180.5t66 170.5t105.5 143t146 98.5t183 36.5q100 0 183 -41t133 -115l110 508h263l-303 -1366h-263l29 123q-127 -148 -297 -148q-171 0 -274 108.5t-103 301.5zM326 438q0 -104 62 -167.5t157 -63.5q66 0 125.5 32.5t101.5 86.5l76 342 q-33 52 -94.5 83t-137.5 31q-125 0 -207.5 -102t-82.5 -242zM1272 1006q50 24 97.5 63.5t66.5 79.5h-19q-42 0 -70 27.5t-28 76.5q0 56 43 98t98 42q53 0 89 -35t36 -98q0 -92 -69.5 -185t-172.5 -145z" />
<glyph unicode="&#x110;" horiz-adv-x="1519" d="M33 567l51 234h168l125 565h528q113 0 220 -42.5t189.5 -117.5t132.5 -186.5t50 -239.5q0 -112 -29.5 -219.5t-97.5 -210t-168 -179.5t-252 -124t-338 -47h-536l125 567h-168zM424 256h246q159 1 280.5 70.5t183.5 183t62 250.5q0 150 -97 250t-247 100h-240l-69 -309 h305l-53 -234h-303z" />
<glyph unicode="&#x111;" horiz-adv-x="1208" d="M53 385q0 91 21.5 180.5t66 170.5t105.5 143t146 98.5t183 36.5q100 0 183 -41t133 -115l47 223h-309l30 150h312l30 135h263l-31 -135h102l-28 -150h-107l-239 -1081h-263l29 123q-127 -148 -297 -148q-171 0 -274 108.5t-103 301.5zM326 438q0 -104 62 -167.5 t157 -63.5q66 0 125.5 32.5t101.5 86.5l76 342q-33 52 -94.5 83t-137.5 31q-125 0 -207.5 -102t-82.5 -242z" />
<glyph unicode="&#x112;" horiz-adv-x="1193" d="M25 0l301 1366h966l-57 -256h-674l-63 -287h659l-55 -256h-662l-67 -311h674l-56 -256h-966zM467 1530l33 149h741l-33 -149h-741z" />
<glyph unicode="&#x113;" horiz-adv-x="1132" d="M57 420q0 160 73.5 296t205.5 217t293 81q195 0 319.5 -119t124.5 -322q0 -85 -20 -163h-736v-25q0 -72 73 -134.5t200 -62.5q69 0 137.5 19t112.5 53l80 -182q-71 -49 -164.5 -76t-186.5 -27q-234 0 -373 119.5t-139 325.5zM346 590h492h2q2 4 2 20q0 81 -59.5 136 t-170.5 55q-102 0 -176 -62.5t-90 -148.5zM348 1176l33 149h741l-32 -149h-742z" />
<glyph unicode="&#x114;" horiz-adv-x="1193" d="M25 0l301 1366h966l-57 -256h-674l-63 -287h659l-55 -256h-662l-67 -311h674l-56 -256h-966zM502 1645l131 96q30 -59 85.5 -93t131.5 -34q151 0 272 127l99 -96q-81 -85 -185 -133t-213 -48q-107 0 -191.5 48.5t-129.5 132.5z" />
<glyph unicode="&#x115;" horiz-adv-x="1132" d="M57 420q0 160 73.5 296t205.5 217t293 81q195 0 319.5 -119t124.5 -322q0 -85 -20 -163h-736v-25q0 -72 73 -134.5t200 -62.5q69 0 137.5 19t112.5 53l80 -182q-71 -49 -164.5 -76t-186.5 -27q-234 0 -373 119.5t-139 325.5zM346 590h492h2q2 4 2 20q0 81 -59.5 136 t-170.5 55q-102 0 -176 -62.5t-90 -148.5zM403 1319l132 96q30 -59 85.5 -93t131.5 -34q151 0 272 127l98 -96q-81 -84 -184.5 -132t-212.5 -48q-108 0 -192.5 48t-129.5 132z" />
<glyph unicode="&#x116;" horiz-adv-x="1193" d="M25 0l301 1366h966l-57 -256h-674l-63 -287h659l-55 -256h-662l-67 -311h674l-56 -256h-966zM727 1589q0 61 48 108.5t110 47.5q53 0 88 -35.5t35 -89.5q0 -61 -48 -107.5t-110 -46.5q-52 0 -87.5 35t-35.5 88z" />
<glyph unicode="&#x117;" horiz-adv-x="1132" d="M57 420q0 160 73.5 296t205.5 217t293 81q195 0 319.5 -119t124.5 -322q0 -85 -20 -163h-736v-25q0 -72 73 -134.5t200 -62.5q69 0 137.5 19t112.5 53l80 -182q-71 -49 -164.5 -76t-186.5 -27q-234 0 -373 119.5t-139 325.5zM346 590h492h2q2 4 2 20q0 81 -59.5 136 t-170.5 55q-102 0 -176 -62.5t-90 -148.5zM612 1251q0 61 48 108.5t110 47.5q53 0 88 -35.5t35 -89.5q0 -61 -48 -107.5t-110 -46.5q-53 0 -88 35t-35 88z" />
<glyph unicode="&#x118;" horiz-adv-x="1193" d="M25 0l301 1366h966l-57 -256h-674l-63 -287h659l-55 -256h-662l-67 -311h674l-56 -256q-192 -83 -192 -203q0 -33 19 -50t52 -17q56 0 97 67l88 -73q-81 -105 -193 -105q-81 0 -136.5 41t-55.5 115q0 131 123 225h-768z" />
<glyph unicode="&#x119;" horiz-adv-x="1132" d="M57 420q0 160 73.5 296t205.5 217t293 81q195 0 319.5 -119t124.5 -322q0 -85 -20 -163h-736v-25q0 -72 73 -134.5t200 -62.5q69 0 137.5 19t112.5 53l80 -182q-78 -53 -175 -78q-192 -83 -192 -203q0 -33 19.5 -50t52.5 -17q55 0 96 67l88 -73q-81 -105 -193 -105 q-81 0 -136.5 41t-55.5 115q0 112 96 202q-215 12 -339 129.5t-124 313.5zM346 590h494q2 4 2 20q0 81 -59.5 136t-170.5 55q-102 0 -176 -62.5t-90 -148.5z" />
<glyph unicode="&#x11a;" horiz-adv-x="1193" d="M25 0l301 1366h966l-57 -256h-674l-63 -287h659l-55 -256h-662l-67 -311h674l-56 -256h-966zM598 1786h156l110 -182l185 182h163l-251 -295h-234z" />
<glyph unicode="&#x11b;" horiz-adv-x="1132" d="M57 420q0 160 73.5 296t205.5 217t293 81q195 0 319.5 -119t124.5 -322q0 -85 -20 -163h-736v-25q0 -72 73 -134.5t200 -62.5q69 0 137.5 19t112.5 53l80 -182q-71 -49 -164.5 -76t-186.5 -27q-234 0 -373 119.5t-139 325.5zM346 590h492h2q2 4 2 20q0 81 -59.5 136 t-170.5 55q-102 0 -176 -62.5t-90 -148.5zM475 1434h156l110 -183l185 183h164l-252 -295h-234z" />
<glyph unicode="&#x11c;" horiz-adv-x="1474" d="M90 588q0 227 106 410.5t294 287t421 103.5q205 0 350.5 -97t213.5 -241l-267 -115q-36 86 -129 140t-209 54q-126 0 -235 -68t-174.5 -189t-65.5 -267q0 -160 104 -266.5t279 -106.5q152 0 273 105l36 164h-362l57 256h654l-119 -531q-101 -120 -244.5 -186t-310.5 -66 q-187 0 -339 73.5t-242.5 214.5t-90.5 325zM715 1491l254 295h233l127 -295h-155l-111 182l-184 -182h-164z" />
<glyph unicode="&#x11d;" horiz-adv-x="1198" d="M-45 -229l154 172q46 -63 133.5 -97t187.5 -34q229 0 281 254l20 94q-56 -72 -135 -112t-168 -40q-77 0 -142.5 23.5t-118 70t-82.5 126t-30 182.5q0 114 35.5 221.5t99 193t162 137.5t215.5 52q91 0 178.5 -42.5t141.5 -113.5l31 131h260l-205 -923q-24 -108 -68 -191.5 t-96.5 -134.5t-117.5 -83.5t-127 -45t-130 -12.5q-315 0 -479 172zM326 461q0 -100 62 -160.5t163 -60.5q63 0 122.5 31.5t100.5 82.5l70 308q-35 57 -99.5 88.5t-142.5 31.5q-120 0 -198 -93t-78 -228zM444 1122l254 295h234l127 -295h-156l-110 183l-185 -183h-164z" />
<glyph unicode="&#x11e;" horiz-adv-x="1474" d="M90 588q0 227 106 410.5t294 287t421 103.5q205 0 350.5 -97t213.5 -241l-267 -115q-36 86 -129 140t-209 54q-126 0 -235 -68t-174.5 -189t-65.5 -267q0 -160 104 -266.5t279 -106.5q152 0 273 105l36 164h-362l57 256h654l-119 -531q-101 -120 -244.5 -186t-310.5 -66 q-187 0 -339 73.5t-242.5 214.5t-90.5 325zM692 1645l131 96q30 -59 85.5 -93t131.5 -34q152 0 273 127l98 -96q-81 -85 -184.5 -133t-212.5 -48q-108 0 -192.5 48.5t-129.5 132.5z" />
<glyph unicode="&#x11f;" horiz-adv-x="1198" d="M-45 -229l154 172q46 -63 133.5 -97t187.5 -34q229 0 281 254l20 94q-56 -72 -135 -112t-168 -40q-77 0 -142.5 23.5t-118 70t-82.5 126t-30 182.5q0 114 35.5 221.5t99 193t162 137.5t215.5 52q91 0 178.5 -42.5t141.5 -113.5l31 131h260l-205 -923q-24 -108 -68 -191.5 t-96.5 -134.5t-117.5 -83.5t-127 -45t-130 -12.5q-315 0 -479 172zM326 461q0 -100 62 -160.5t163 -60.5q63 0 122.5 31.5t100.5 82.5l70 308q-35 57 -99.5 88.5t-142.5 31.5q-120 0 -198 -93t-78 -228zM414 1319l131 96q30 -59 85.5 -93t131.5 -34q151 0 272 127l99 -96 q-81 -84 -185 -132t-213 -48q-108 0 -192 48t-129 132z" />
<glyph unicode="&#x120;" horiz-adv-x="1474" d="M90 588q0 227 106 410.5t294 287t421 103.5q205 0 350.5 -97t213.5 -241l-267 -115q-36 86 -129 140t-209 54q-126 0 -235 -68t-174.5 -189t-65.5 -267q0 -160 104 -266.5t279 -106.5q152 0 273 105l36 164h-362l57 256h654l-119 -531q-101 -120 -244.5 -186t-310.5 -66 q-187 0 -339 73.5t-242.5 214.5t-90.5 325zM905 1589q0 61 48 108.5t110 47.5q53 0 88 -35.5t35 -89.5q0 -61 -48 -107.5t-110 -46.5q-52 0 -87.5 35t-35.5 88z" />
<glyph unicode="&#x121;" horiz-adv-x="1198" d="M-45 -229l154 172q46 -63 133.5 -97t187.5 -34q229 0 281 254l20 94q-56 -72 -135 -112t-168 -40q-77 0 -142.5 23.5t-118 70t-82.5 126t-30 182.5q0 114 35.5 221.5t99 193t162 137.5t215.5 52q91 0 178.5 -42.5t141.5 -113.5l31 131h260l-205 -923q-24 -108 -68 -191.5 t-96.5 -134.5t-117.5 -83.5t-127 -45t-130 -12.5q-315 0 -479 172zM326 461q0 -100 62 -160.5t163 -60.5q63 0 122.5 31.5t100.5 82.5l70 308q-35 57 -99.5 88.5t-142.5 31.5q-120 0 -198 -93t-78 -228zM639 1251q0 61 48 108.5t110 47.5q53 0 88 -35.5t35 -89.5 q0 -61 -48 -107.5t-110 -46.5q-52 0 -87.5 35t-35.5 88z" />
<glyph unicode="&#x122;" horiz-adv-x="1474" d="M90 588q0 227 106 410.5t294 287t421 103.5q205 0 350.5 -97t213.5 -241l-267 -115q-36 86 -129 140t-209 54q-126 0 -235 -68t-174.5 -189t-65.5 -267q0 -160 104 -266.5t279 -106.5q152 0 273 105l36 164h-362l57 256h654l-119 -531q-101 -120 -244.5 -186t-310.5 -66 q-187 0 -339 73.5t-242.5 214.5t-90.5 325zM459 -502q50 24 97.5 64t66.5 80h-19q-42 0 -70 27.5t-28 76.5q0 56 43 97.5t98 41.5q53 0 89 -35t36 -98q0 -92 -69.5 -185t-172.5 -145z" />
<glyph unicode="&#x123;" horiz-adv-x="1198" d="M-45 -229l154 172q46 -63 133.5 -97t187.5 -34q229 0 281 254l20 94q-56 -72 -135 -112t-168 -40q-77 0 -142.5 23.5t-118 70t-82.5 126t-30 182.5q0 114 35.5 221.5t99 193t162 137.5t215.5 52q91 0 178.5 -42.5t141.5 -113.5l31 131h260l-205 -923q-24 -108 -68 -191.5 t-96.5 -134.5t-117.5 -83.5t-127 -45t-130 -12.5q-315 0 -479 172zM326 461q0 -100 62 -160.5t163 -60.5q63 0 122.5 31.5t100.5 82.5l70 308q-35 57 -99.5 88.5t-142.5 31.5q-120 0 -198 -93t-78 -228zM621 1270q0 95 70 190.5t173 145.5l76 -78q-53 -24 -101 -63.5 t-67 -82.5h19q43 0 71.5 -27.5t28.5 -78.5q0 -56 -43.5 -97.5t-99.5 -41.5q-54 0 -90.5 35.5t-36.5 97.5z" />
<glyph unicode="&#x124;" horiz-adv-x="1497" d="M25 0l301 1366h290l-116 -537h643l119 537h292l-301 -1366h-292l126 575h-645l-127 -575h-290zM659 1491l254 295h234l127 -295h-156l-110 182l-185 -182h-164z" />
<glyph unicode="&#x125;" horiz-adv-x="1187" d="M18 0l301 1366h263l-113 -504q160 152 330 152q142 0 225.5 -68t83.5 -184q0 -32 -10 -82l-150 -680h-260l131 600q8 32 8 57q0 64 -46.5 94.5t-123.5 30.5q-115 0 -231 -116l-145 -666h-263zM176 1491l254 295h234l127 -295h-156l-111 182l-184 -182h-164z" />
<glyph unicode="&#x126;" horiz-adv-x="1531" d="M43 0l225 1026h-133l33 150h133l43 190h291l-41 -190h643l43 190h293l-43 -190h129l-33 -150h-129l-225 -1026h-293l127 575h-645l-127 -575h-291zM518 829h643l43 197h-643z" />
<glyph unicode="&#x127;" horiz-adv-x="1196" d="M27 0l237 1081h-119l35 150h117l31 135h262l-31 -135h297l-33 -150h-297l-49 -219q160 152 330 152q142 0 225.5 -68t83.5 -184q0 -32 -10 -82l-150 -680h-260l131 600q9 36 9 57q0 64 -46.5 94.5t-123.5 30.5q-61 0 -122 -33.5t-110 -82.5l-145 -666h-262z" />
<glyph unicode="&#x128;" horiz-adv-x="561" d="M25 0l301 1366h290l-301 -1366h-290zM168 1499q27 136 86 205.5t162 69.5q40 0 71.5 -14t51.5 -34.5t38 -41t39.5 -34.5t47.5 -14q63 0 92 125h139q-29 -137 -88 -205.5t-162 -68.5q-40 0 -71 14.5t-51 34.5t-37.5 40.5t-39 35t-47.5 14.5q-66 0 -92 -127h-139z" />
<glyph unicode="&#x129;" horiz-adv-x="518" d="M18 0l220 989h260l-219 -989h-261zM70 1112q27 137 85.5 205.5t161.5 68.5q40 0 71.5 -14t51.5 -34t38 -40.5t39.5 -34.5t47.5 -14q63 0 92 125h140q-29 -137 -88 -205.5t-162 -68.5q-40 0 -71 14.5t-51 35t-37.5 40.5t-39 34.5t-47.5 14.5q-66 0 -92 -127h-139z" />
<glyph unicode="&#x12a;" horiz-adv-x="561" d="M25 0l301 1366h290l-301 -1366h-290zM137 1530l33 149h741l-32 -149h-742z" />
<glyph unicode="&#x12b;" horiz-adv-x="518" d="M18 0l220 989h260l-219 -989h-261zM39 1176l33 149h741l-33 -149h-741z" />
<glyph unicode="&#x12c;" horiz-adv-x="561" d="M25 0l301 1366h290l-301 -1366h-290zM180 1645l131 96q30 -59 85.5 -93t131.5 -34q152 0 273 127l98 -96q-81 -85 -184.5 -133t-212.5 -48q-108 0 -192.5 48.5t-129.5 132.5z" />
<glyph unicode="&#x12d;" horiz-adv-x="518" d="M18 0l220 989h260l-219 -989h-261zM88 1319l131 96q30 -59 85.5 -93t131.5 -34q152 0 273 127l98 -96q-81 -84 -184.5 -132t-212.5 -48q-108 0 -192.5 48t-129.5 132z" />
<glyph unicode="&#x12e;" horiz-adv-x="561" d="M-6 -225q0 131 123 225h-92l301 1366h290l-301 -1366q-192 -83 -192 -203q0 -33 19.5 -50t52.5 -17q55 0 96 67l88 -73q-81 -105 -193 -105q-81 0 -136.5 41t-55.5 115z" />
<glyph unicode="&#x12f;" horiz-adv-x="518" d="M-43 -225q0 131 123 225h-62l220 989h260l-219 -989q-193 -83 -193 -203q0 -33 19.5 -50t52.5 -17q55 0 96 67l88 -73q-81 -105 -192 -105q-82 0 -137.5 41t-55.5 115zM266 1229q0 79 54.5 127.5t119.5 48.5q61 0 101.5 -38.5t40.5 -94.5q0 -79 -55 -127.5t-121 -48.5 q-60 0 -100 38.5t-40 94.5z" />
<glyph unicode="&#x130;" horiz-adv-x="561" d="M25 0l301 1366h290l-301 -1366h-290zM389 1589q0 61 48 108.5t110 47.5q53 0 88 -35.5t35 -89.5q0 -61 -48 -107.5t-110 -46.5q-52 0 -87.5 35t-35.5 88z" />
<glyph unicode="&#x131;" horiz-adv-x="518" d="M18 0l220 989h260l-219 -989h-261z" />
<glyph unicode="&#x132;" horiz-adv-x="1558" d="M25 0l301 1366h290l-301 -1366h-290zM502 129l157 219q33 -52 92 -83.5t128 -31.5q96 0 157 59t84 161l201 913h293l-203 -917q-54 -243 -178 -358.5t-334 -115.5q-119 0 -226 39.5t-171 114.5z" />
<glyph unicode="&#x133;" horiz-adv-x="1034" d="M18 0l220 989h260l-219 -989h-261zM135 -317l109 184q46 -55 127 -55q121 0 157 161l228 1016h260l-225 -1016q-39 -180 -129.5 -277t-251.5 -97q-188 0 -275 84zM266 1229q0 79 54.5 127.5t119.5 48.5q61 0 101.5 -38.5t40.5 -94.5q0 -79 -55 -127.5t-121 -48.5 q-60 0 -100 38.5t-40 94.5zM784 1229q0 79 54.5 127.5t119.5 48.5q61 0 101.5 -38.5t40.5 -94.5q0 -79 -55 -127.5t-121 -48.5q-60 0 -100 38.5t-40 94.5z" />
<glyph unicode="&#x134;" horiz-adv-x="995" d="M-59 129l157 219q33 -52 91.5 -83.5t127.5 -31.5q97 0 158 59t84 161l201 913h293l-203 -917q-54 -243 -178 -358.5t-334 -115.5q-119 0 -226 39.5t-171 114.5zM629 1491l254 295h233l127 -295h-156l-110 182l-184 -182h-164z" />
<glyph unicode="&#x135;" horiz-adv-x="518" d="M-383 -317l113 202q46 -55 127 -55q59 0 98.5 37t54.5 106l228 1016h260l-226 -1016q-39 -180 -129.5 -277t-251.5 -97q-187 0 -274 84zM98 1139l254 295h234l127 -295h-156l-111 182l-184 -182h-164z" />
<glyph unicode="&#x136;" horiz-adv-x="1327" d="M25 0l301 1366h290l-129 -586l596 586h375l-684 -641l420 -725h-342l-299 559l-143 -139l-95 -420h-290zM324 -502q50 24 97 64t66 80h-18q-42 0 -70 27.5t-28 76.5q0 56 43 97.5t98 41.5q53 0 89 -35t36 -98q0 -92 -69.5 -185t-172.5 -145z" />
<glyph unicode="&#x137;" horiz-adv-x="1097" d="M18 0l301 1366h261l-179 -801l461 424h330l-492 -448l285 -541h-315l-183 387l-153 -133l-55 -254h-261zM211 -502q50 24 97.5 64t66.5 80h-19q-42 0 -70 27.5t-28 76.5q0 56 43 97.5t98 41.5q53 0 89 -35t36 -98q0 -92 -69 -185t-172 -145z" />
<glyph unicode="&#x138;" horiz-adv-x="1097" d="M18 0l220 989h260l-97 -424l461 424h330l-492 -448l285 -541h-315l-183 387l-153 -133l-55 -254h-261z" />
<glyph unicode="&#x139;" horiz-adv-x="1054" d="M12 0l301 1366h293l-246 -1110h578l-55 -256h-871zM526 1491l340 295h244l-397 -295h-187z" />
<glyph unicode="&#x13a;" horiz-adv-x="518" d="M18 0l301 1366h261l-301 -1366h-261zM307 1491l340 295h244l-397 -295h-187z" />
<glyph unicode="&#x13b;" horiz-adv-x="1054" d="M12 0l301 1366h293l-246 -1110h578l-55 -256h-871zM182 -502q50 24 97.5 64t66.5 80h-18q-42 0 -70.5 27.5t-28.5 76.5q0 56 43.5 97.5t98.5 41.5q53 0 89 -35t36 -98q0 -92 -69.5 -185t-172.5 -145z" />
<glyph unicode="&#x13c;" horiz-adv-x="518" d="M-80 -502q50 24 97.5 64t66.5 80h-18q-42 0 -70.5 27.5t-28.5 76.5q0 56 43.5 97.5t98.5 41.5q52 0 88 -35t36 -98q0 -92 -69 -185t-172 -145zM18 0l301 1366h261l-301 -1366h-261z" />
<glyph unicode="&#x13d;" horiz-adv-x="1054" d="M12 0l301 1366h293l-246 -1110h578l-55 -256h-871zM696 1008q50 24 97.5 63.5t66.5 79.5h-18q-42 0 -70.5 27.5t-28.5 76.5q0 56 43.5 98t98.5 42q53 0 89 -35t36 -98q0 -92 -69.5 -185t-172.5 -145z" />
<glyph unicode="&#x13e;" horiz-adv-x="727" d="M18 0l301 1366h261l-301 -1366h-261zM610 1008q50 24 97.5 63.5t66.5 79.5h-18q-42 0 -70.5 27.5t-28.5 76.5q0 56 43.5 98t98.5 42q53 0 89 -35t36 -98q0 -92 -69.5 -185t-172.5 -145z" />
<glyph unicode="&#x13f;" horiz-adv-x="1138" d="M12 0l301 1366h293l-246 -1110h578l-55 -256h-871zM723 690q0 73 54 125.5t128 52.5q63 0 106.5 -44t43.5 -107q0 -73 -54.5 -126.5t-126.5 -53.5q-64 0 -107.5 44.5t-43.5 108.5z" />
<glyph unicode="&#x140;" horiz-adv-x="786" d="M18 0l301 1366h261l-301 -1366h-261zM485 489q0 73 54.5 126t128.5 53q63 0 106 -44.5t43 -107.5q0 -73 -54 -126.5t-126 -53.5q-64 0 -108 45t-44 108z" />
<glyph unicode="&#x141;" horiz-adv-x="1095" d="M-6 393l53 238l164 84l143 651h293l-106 -483l176 92l-53 -240l-177 -90l-86 -389h578l-55 -256h-871l105 477z" />
<glyph unicode="&#x142;" horiz-adv-x="630" d="M-2 418l43 190l190 97l146 661h260l-113 -512l189 96l-41 -188l-191 -98l-145 -664h-260l112 514z" />
<glyph unicode="&#x143;" horiz-adv-x="1492" d="M25 0l301 1366h299l438 -870l194 870h291l-301 -1366h-280l-451 905l-201 -905h-290zM793 1491l340 295h243l-397 -295h-186z" />
<glyph unicode="&#x144;" d="M33 0l219 989h260l-29 -127q160 152 330 152q142 0 225.5 -68t83.5 -184q0 -32 -10 -82l-149 -680h-263l134 600q8 36 8 57q0 64 -46.5 94.5t-123.5 30.5q-114 0 -232 -114l-147 -668h-260zM563 1139l340 295h244l-397 -295h-187z" />
<glyph unicode="&#x145;" horiz-adv-x="1492" d="M25 0l301 1366h299l438 -870l194 870h291l-301 -1366h-280l-451 905l-201 -905h-290zM408 -502q50 24 97 64t66 80h-18q-42 0 -70 27.5t-28 76.5q0 56 43 97.5t98 41.5q53 0 89 -35t36 -98q0 -92 -69.5 -185t-172.5 -145z" />
<glyph unicode="&#x146;" d="M33 0l219 989h260l-29 -127q160 152 330 152q142 0 225.5 -68t83.5 -184q0 -32 -10 -82l-149 -680h-263l134 600q8 36 8 57q0 64 -46.5 94.5t-123.5 30.5q-114 0 -232 -114l-147 -668h-260zM254 -502q50 24 97.5 64t66.5 80h-19q-42 0 -70 27.5t-28 76.5q0 56 43 97.5 t98 41.5q53 0 89 -35t36 -98q0 -92 -69 -185t-172 -145z" />
<glyph unicode="&#x147;" horiz-adv-x="1492" d="M25 0l301 1366h299l438 -870l194 870h291l-301 -1366h-280l-451 905l-201 -905h-290zM723 1786h156l110 -182l185 182h163l-252 -295h-233z" />
<glyph unicode="&#x148;" d="M33 0l219 989h260l-29 -127q160 152 330 152q142 0 225.5 -68t83.5 -184q0 -32 -10 -82l-149 -680h-263l134 600q8 36 8 57q0 64 -46.5 94.5t-123.5 30.5q-114 0 -232 -114l-147 -668h-260zM494 1434h155l111 -183l184 183h164l-252 -295h-233z" />
<glyph unicode="&#x149;" d="M33 0l219 989h260l-29 -127q160 152 330 152q142 0 225.5 -68t83.5 -184q0 -32 -10 -82l-149 -680h-263l134 600q8 36 8 57q0 64 -46.5 94.5t-123.5 30.5q-114 0 -232 -114l-147 -668h-260zM246 1180q50 24 97.5 63.5t66.5 79.5h-19q-42 0 -70 27.5t-28 76.5q0 56 43 98 t98 42q53 0 89 -35t36 -98q0 -92 -69.5 -185t-172.5 -145z" />
<glyph unicode="&#x14a;" horiz-adv-x="1492" d="M25 0l301 1366h299l438 -870l194 870h291l-286 -1296q-55 -244 -181 -357.5t-331 -113.5q-122 0 -227.5 39.5t-168.5 113.5l152 193q32 -51 90.5 -82t128.5 -31q87 0 145.5 48.5t85.5 137.5l-440 887l-201 -905h-290z" />
<glyph unicode="&#x14b;" d="M18 0l220 989h260l-29 -127q160 152 330 152q138 0 223.5 -66t85.5 -186q0 -34 -10 -82l-158 -707q-40 -179 -130 -276.5t-251 -97.5q-187 0 -274 84l114 202q49 -55 127 -55q60 0 99.5 37t54.5 106l139 627q8 40 8 55q0 66 -46 96.5t-124 30.5q-113 0 -231 -114 l-147 -668h-261z" />
<glyph unicode="&#x14c;" horiz-adv-x="1566" d="M90 588q0 165 61.5 313t166.5 255t253 170t314 63q189 0 340.5 -73.5t241 -214t89.5 -323.5q0 -132 -39 -254.5t-111 -221.5t-169 -172.5t-219.5 -114t-255.5 -40.5q-141 0 -264.5 43.5t-213.5 122t-142 194t-52 253.5zM395 606q0 -169 108 -271t275 -102q97 0 185 41 t151 111t100 167.5t37 205.5q0 169 -108.5 270.5t-276.5 101.5q-130 0 -238.5 -69.5t-170.5 -190t-62 -264.5zM639 1530l33 149h741l-33 -149h-741z" />
<glyph unicode="&#x14d;" horiz-adv-x="1177" d="M55 426q0 114 43 221t117 188t182 130t230 49q231 0 361 -125.5t130 -325.5q0 -114 -43 -221t-117 -188t-182 -130t-231 -49q-231 0 -360.5 125t-129.5 326zM324 438q0 -107 62 -169t169 -62q127 0 210 103t83 241q0 107 -61.5 169t-168.5 62q-127 0 -210.5 -103 t-83.5 -241zM367 1176l32 149h742l-33 -149h-741z" />
<glyph unicode="&#x14e;" horiz-adv-x="1566" d="M90 588q0 165 61.5 313t166.5 255t253 170t314 63q189 0 340.5 -73.5t241 -214t89.5 -323.5q0 -132 -39 -254.5t-111 -221.5t-169 -172.5t-219.5 -114t-255.5 -40.5q-141 0 -264.5 43.5t-213.5 122t-142 194t-52 253.5zM395 606q0 -169 108 -271t275 -102q97 0 185 41 t151 111t100 167.5t37 205.5q0 169 -108.5 270.5t-276.5 101.5q-130 0 -238.5 -69.5t-170.5 -190t-62 -264.5zM674 1645l131 96q30 -59 85.5 -93t131.5 -34q151 0 272 127l99 -96q-81 -85 -185 -133t-213 -48q-107 0 -191.5 48.5t-129.5 132.5z" />
<glyph unicode="&#x14f;" horiz-adv-x="1177" d="M55 426q0 114 43 221t117 188t182 130t230 49q231 0 361 -125.5t130 -325.5q0 -114 -43 -221t-117 -188t-182 -130t-231 -49q-231 0 -360.5 125t-129.5 326zM324 438q0 -107 62 -169t169 -62q127 0 210 103t83 241q0 107 -61.5 169t-168.5 62q-127 0 -210.5 -103 t-83.5 -241zM408 1319l131 96q30 -59 85.5 -93t131.5 -34q151 0 272 127l98 -96q-81 -84 -184.5 -132t-212.5 -48q-108 0 -192 48t-129 132z" />
<glyph unicode="&#x150;" horiz-adv-x="1566" d="M90 588q0 165 61.5 313t166.5 255t253 170t314 63q189 0 340.5 -73.5t241 -214t89.5 -323.5q0 -132 -39 -254.5t-111 -221.5t-169 -172.5t-219.5 -114t-255.5 -40.5q-141 0 -264.5 43.5t-213.5 122t-142 194t-52 253.5zM395 606q0 -169 108 -271t275 -102q97 0 185 41 t151 111t100 167.5t37 205.5q0 169 -108.5 270.5t-276.5 101.5q-130 0 -238.5 -69.5t-170.5 -190t-62 -264.5zM748 1491l243 295h213l-301 -295h-155zM1053 1491l243 295h213l-301 -295h-155z" />
<glyph unicode="&#x151;" horiz-adv-x="1177" d="M55 426q0 114 43 221t117 188t182 130t230 49q231 0 361 -125.5t130 -325.5q0 -114 -43 -221t-117 -188t-182 -130t-231 -49q-231 0 -360.5 125t-129.5 326zM324 438q0 -107 62 -169t169 -62q127 0 210 103t83 241q0 107 -61.5 169t-168.5 62q-127 0 -210.5 -103 t-83.5 -241zM475 1139l244 295h213l-301 -295h-156zM780 1139l244 295h213l-301 -295h-156z" />
<glyph unicode="&#x152;" horiz-adv-x="2220" d="M90 588q0 174 63 325t169 253.5t247 161t295 58.5q321 0 447 -233l47 213h964l-55 -256h-674l-63 -287h659l-57 -256h-659l-68 -311h674l-58 -256h-964l33 156q-157 -181 -426 -181q-158 0 -289 78t-208 219t-77 316zM395 606q0 -167 104 -270t265 -103q118 0 221 57.5 t170 158.5l90 411q-33 128 -129.5 198t-232.5 70q-139 0 -251.5 -70.5t-174.5 -189.5t-62 -262z" />
<glyph unicode="&#x153;" horiz-adv-x="1906" d="M55 426q0 111 41 216.5t113.5 188t180.5 133t233 50.5q141 0 241.5 -68t141.5 -151q32 36 55.5 59.5t64.5 57t79.5 53.5t93 34.5t112.5 14.5q122 0 220 -49t159 -150.5t61 -241.5q0 -85 -20 -163h-725q-2 -4 -2 -25q0 -76 72.5 -136.5t195.5 -60.5q67 0 134.5 19.5 t111.5 52.5l80 -182q-147 -103 -346 -103q-149 0 -257 67.5t-149 152.5q-28 -31 -39 -42.5t-41.5 -41t-50 -43t-54 -35.5t-64.5 -32t-71.5 -18t-84.5 -8q-219 0 -352.5 120.5t-133.5 330.5zM324 438q0 -107 60.5 -169t166.5 -62q124 0 206.5 101.5t82.5 242.5 q0 115 -63.5 173t-162.5 58q-122 0 -206 -99.5t-84 -244.5zM1133 590h487v20q0 81 -56.5 136t-166.5 55q-102 0 -176.5 -66t-87.5 -145z" />
<glyph unicode="&#x154;" horiz-adv-x="1316" d="M25 0l301 1366h583q112 0 207 -45.5t155 -135t60 -204.5q0 -182 -110 -313t-279 -162l191 -506h-324l-162 485h-225l-107 -485h-290zM479 741h303h2q112 0 178 58.5t66 152.5q0 67 -52.5 112.5t-121.5 45.5h-293zM711 1491l340 295h243l-397 -295h-186z" />
<glyph unicode="&#x155;" horiz-adv-x="737" d="M18 0l220 989h260l-29 -129q141 154 350 154l-57 -258q-48 12 -94 12q-69 0 -135 -33.5t-111 -85.5l-143 -649h-261zM385 1139l340 295h244l-398 -295h-186z" />
<glyph unicode="&#x156;" horiz-adv-x="1316" d="M25 0l301 1366h583q112 0 207 -45.5t155 -135t60 -204.5q0 -182 -110 -313t-279 -162l191 -506h-324l-162 485h-225l-107 -485h-290zM326 -502q50 24 97 64t66 80h-18q-42 0 -70 27.5t-28 76.5q0 56 43 97.5t98 41.5q53 0 89 -35t36 -98q0 -92 -69.5 -185t-172.5 -145z M479 741h303h2q112 0 178 58.5t66 152.5q0 67 -52.5 112.5t-121.5 45.5h-293z" />
<glyph unicode="&#x157;" horiz-adv-x="737" d="M18 0l220 989h260l-29 -129q141 154 350 154l-57 -258q-48 12 -94 12q-69 0 -135 -33.5t-111 -85.5l-143 -649h-261zM29 -502q50 24 97.5 64t66.5 80h-19q-42 0 -70 27.5t-28 76.5q0 56 43 97.5t98 41.5q53 0 89 -35t36 -98q0 -92 -69.5 -185t-172.5 -145z" />
<glyph unicode="&#x158;" horiz-adv-x="1316" d="M25 0l301 1366h583q112 0 207 -45.5t155 -135t60 -204.5q0 -182 -110 -313t-279 -162l191 -506h-324l-162 485h-225l-107 -485h-290zM479 741h303h2q112 0 178 58.5t66 152.5q0 67 -52.5 112.5t-121.5 45.5h-293zM641 1786h156l110 -182l185 182h163l-251 -295h-234z" />
<glyph unicode="&#x159;" horiz-adv-x="737" d="M18 0l220 989h260l-29 -129q141 154 350 154l-57 -258q-48 12 -94 12q-69 0 -135 -33.5t-111 -85.5l-143 -649h-261zM313 1434h156l111 -183l184 183h164l-252 -295h-234z" />
<glyph unicode="&#x15a;" horiz-adv-x="1228" d="M-2 231l180 215q71 -96 196 -154.5t265 -58.5q102 0 154.5 47t52.5 107q0 39 -36.5 70t-95.5 55t-130 48.5t-142 57t-130 73.5t-95.5 105.5t-36.5 145.5q0 85 37 164.5t104 142t169.5 100t224.5 37.5q164 0 309 -58t236 -163l-183 -209q-73 85 -184.5 129.5t-222.5 44.5 q-77 0 -130 -39.5t-53 -95.5q0 -36 37 -65.5t96 -53t130 -48.5t142 -58t130 -74.5t96 -106.5t37 -145q0 -94 -37.5 -179t-105 -149.5t-170.5 -102.5t-226 -38q-198 0 -364 70t-254 186zM657 1491l340 295h244l-397 -295h-187z" />
<glyph unicode="&#x15b;" horiz-adv-x="976" d="M-16 154l145 182q50 -59 148 -107.5t198 -48.5q64 0 103.5 30t39.5 73q0 36 -52 63t-126 50t-147.5 53.5t-125.5 89.5t-52 141q0 137 109 235.5t298 98.5q124 0 236 -43.5t184 -116.5l-135 -174q-38 49 -121.5 89t-169.5 40q-67 0 -105 -26t-38 -66q0 -24 28 -43.5 t72 -35t98 -32.5t108 -40.5t98 -54t72 -79.5t28 -110q0 -147 -116 -247t-312 -100q-137 0 -260 46.5t-205 132.5zM465 1139l340 295h244l-398 -295h-186z" />
<glyph unicode="&#x15c;" horiz-adv-x="1228" d="M-2 231l180 215q71 -96 196 -154.5t265 -58.5q102 0 154.5 47t52.5 107q0 39 -36.5 70t-95.5 55t-130 48.5t-142 57t-130 73.5t-95.5 105.5t-36.5 145.5q0 85 37 164.5t104 142t169.5 100t224.5 37.5q164 0 309 -58t236 -163l-183 -209q-73 85 -184.5 129.5t-222.5 44.5 q-77 0 -130 -39.5t-53 -95.5q0 -36 37 -65.5t96 -53t130 -48.5t142 -58t130 -74.5t96 -106.5t37 -145q0 -94 -37.5 -179t-105 -149.5t-170.5 -102.5t-226 -38q-198 0 -364 70t-254 186zM434 1491l254 295h234l127 -295h-156l-111 182l-184 -182h-164z" />
<glyph unicode="&#x15d;" horiz-adv-x="976" d="M-16 154l145 182q50 -59 148 -107.5t198 -48.5q64 0 103.5 30t39.5 73q0 36 -52 63t-126 50t-147.5 53.5t-125.5 89.5t-52 141q0 137 109 235.5t298 98.5q124 0 236 -43.5t184 -116.5l-135 -174q-38 49 -121.5 89t-169.5 40q-67 0 -105 -26t-38 -66q0 -24 28 -43.5 t72 -35t98 -32.5t108 -40.5t98 -54t72 -79.5t28 -110q0 -147 -116 -247t-312 -100q-137 0 -260 46.5t-205 132.5zM319 1139l254 295h234l127 -295h-156l-110 182l-185 -182h-164z" />
<glyph unicode="&#x15e;" horiz-adv-x="1228" d="M-2 231l180 215q71 -96 196 -154.5t265 -58.5q102 0 154.5 47t52.5 107q0 39 -36.5 70t-95.5 55t-130 48.5t-142 57t-130 73.5t-95.5 105.5t-36.5 145.5q0 85 37 164.5t104 142t169.5 100t224.5 37.5q164 0 309 -58t236 -163l-183 -209q-73 85 -184.5 129.5t-222.5 44.5 q-77 0 -130 -39.5t-53 -95.5q0 -36 37 -65.5t96 -53t130 -48.5t142 -58t130 -74.5t96 -106.5t37 -145q0 -94 -37.5 -179t-105 -149.5t-170.5 -102.5t-226 -38q-16 0 -84 5l-51 -84q25 20 64 20q53 0 87 -34t34 -93q0 -85 -66 -136.5t-166 -51.5q-78 0 -142.5 23.5 t-101.5 60.5l72 96q78 -72 174 -72q46 0 73.5 20t27.5 52q0 22 -15.5 35.5t-44.5 13.5q-35 0 -61 -29l-82 54l82 141q-136 26 -245.5 88t-172.5 147z" />
<glyph unicode="&#x15f;" horiz-adv-x="976" d="M-16 154l145 182q50 -59 148 -107.5t198 -48.5q64 0 103.5 30t39.5 73q0 36 -52 63t-126 50t-147.5 53.5t-125.5 89.5t-52 141q0 137 109 235.5t298 98.5q124 0 236 -43.5t184 -116.5l-135 -174q-38 49 -121.5 89t-169.5 40q-67 0 -105 -26t-38 -66q0 -24 28 -43.5 t72 -35t98 -32.5t108 -40.5t98 -54t72 -79.5t28 -110q0 -147 -116 -247t-312 -100h-33l-49 -79q25 20 63 20q52 0 86.5 -34t34.5 -93q0 -85 -66 -136.5t-166 -51.5q-78 0 -142 23.5t-101 60.5l71 96q78 -72 175 -72q46 0 73 20t27 52q0 22 -15.5 35.5t-44.5 13.5 q-35 0 -61 -29l-82 54l78 135q-198 40 -313 164z" />
<glyph unicode="&#x160;" horiz-adv-x="1228" d="M-2 231l180 215q71 -96 196 -154.5t265 -58.5q102 0 154.5 47t52.5 107q0 39 -36.5 70t-95.5 55t-130 48.5t-142 57t-130 73.5t-95.5 105.5t-36.5 145.5q0 85 37 164.5t104 142t169.5 100t224.5 37.5q164 0 309 -58t236 -163l-183 -209q-73 85 -184.5 129.5t-222.5 44.5 q-77 0 -130 -39.5t-53 -95.5q0 -36 37 -65.5t96 -53t130 -48.5t142 -58t130 -74.5t96 -106.5t37 -145q0 -94 -37.5 -179t-105 -149.5t-170.5 -102.5t-226 -38q-198 0 -364 70t-254 186zM578 1786h155l111 -182l184 182h164l-252 -295h-233z" />
<glyph unicode="&#x161;" horiz-adv-x="976" d="M-16 154l145 182q50 -59 148 -107.5t198 -48.5q64 0 103.5 30t39.5 73q0 36 -52 63t-126 50t-147.5 53.5t-125.5 89.5t-52 141q0 137 109 235.5t298 98.5q124 0 236 -43.5t184 -116.5l-135 -174q-38 49 -121.5 89t-169.5 40q-67 0 -105 -26t-38 -66q0 -24 28 -43.5 t72 -35t98 -32.5t108 -40.5t98 -54t72 -79.5t28 -110q0 -147 -116 -247t-312 -100q-137 0 -260 46.5t-205 132.5zM385 1434h156l110 -183l185 183h163l-251 -295h-234z" />
<glyph unicode="&#x162;" horiz-adv-x="1191" d="M186 1110l56 256h1089l-55 -256h-399l-244 -1110h-293l246 1110h-400zM258 -502q50 24 97.5 64t66.5 80h-19q-42 0 -70 27.5t-28 76.5q0 56 43 97.5t98 41.5q53 0 89 -35t36 -98q0 -92 -69 -185t-172 -145z" />
<glyph unicode="&#x163;" horiz-adv-x="692" d="M6 -502q50 24 97.5 64t66.5 80h-18q-42 0 -70.5 27.5t-28.5 76.5q0 56 43.5 97.5t98.5 41.5q52 0 88 -35t36 -98q0 -92 -69 -185t-172 -145zM76 762l51 227h164l59 271h260l-59 -271h201l-52 -227h-200l-97 -434q-2 -12 -2 -35q0 -86 97 -86q47 0 71 20l9 -209 q-59 -43 -162 -43q-137 0 -216 54t-79 161q0 35 8 68l111 504h-164z" />
<glyph unicode="&#x164;" horiz-adv-x="1191" d="M186 1110l56 256h1089l-55 -256h-399l-244 -1110h-293l246 1110h-400zM573 1786h156l111 -182l184 182h164l-252 -295h-234z" />
<glyph unicode="&#x165;" horiz-adv-x="778" d="M76 762l51 227h164l59 271h260l-59 -271h201l-52 -227h-200l-97 -434q-2 -12 -2 -35q0 -86 97 -86q47 0 71 20l9 -209q-59 -43 -162 -43q-137 0 -216 54t-79 161q0 35 8 68l111 504h-164zM709 1180q50 24 97 63.5t66 79.5h-18q-42 0 -70 27.5t-28 76.5q0 56 43 98t98 42 q53 0 89 -35t36 -98q0 -92 -69.5 -185t-172.5 -145z" />
<glyph unicode="&#x166;" horiz-adv-x="1191" d="M186 539l33 147h273l94 424h-400l56 256h1089l-55 -256h-399l-95 -424h275l-33 -147h-274l-117 -539h-293l119 539h-273z" />
<glyph unicode="&#x167;" horiz-adv-x="692" d="M2 428l31 147h166l41 187h-164l51 227h164l59 271h260l-59 -271h201l-52 -227h-200l-41 -187h139l-33 -147h-139l-23 -100q-2 -12 -2 -35q0 -86 97 -86q47 0 71 20l9 -209q-59 -43 -162 -43q-137 0 -216 54t-79 161q0 35 8 68l37 170h-164z" />
<glyph unicode="&#x168;" horiz-adv-x="1503" d="M135 453q0 37 10 94l181 819h295l-179 -813q-8 -24 -8 -68q2 -109 79 -181.5t216 -72.5q281 0 354 322l179 813h297l-183 -819q-28 -131 -75.5 -230.5t-123 -179t-188.5 -121t-260 -41.5q-287 0 -440.5 129.5t-153.5 348.5zM643 1499q27 136 86 205.5t162 69.5 q40 0 71.5 -14t51.5 -34.5t38 -41t39.5 -34.5t47.5 -14q63 0 92 125h139q-29 -137 -88 -205.5t-162 -68.5q-40 0 -71 14.5t-51 34.5t-37.5 40.5t-39 35t-47.5 14.5q-66 0 -92 -127h-139z" />
<glyph unicode="&#x169;" d="M74 227q0 42 12 82l150 680h260l-131 -598q-9 -41 -9 -57q0 -64 46.5 -95.5t121.5 -31.5q117 0 234 117l147 665h260l-219 -989h-260l29 127q-160 -152 -330 -152q-143 0 -227 68.5t-84 183.5zM401 1147q27 136 86 205t162 69q40 0 71.5 -14t51.5 -34.5t38 -40.5 t39.5 -34t47.5 -14q63 0 92 125h139q-29 -137 -87.5 -205.5t-161.5 -68.5q-40 0 -71 14.5t-51 34.5t-37.5 40.5t-39 35t-47.5 14.5q-66 0 -92 -127h-140z" />
<glyph unicode="&#x16a;" horiz-adv-x="1503" d="M135 453q0 37 10 94l181 819h295l-179 -813q-8 -24 -8 -68q2 -109 79 -181.5t216 -72.5q281 0 354 322l179 813h297l-183 -819q-28 -131 -75.5 -230.5t-123 -179t-188.5 -121t-260 -41.5q-287 0 -440.5 129.5t-153.5 348.5zM612 1530l33 149h741l-32 -149h-742z" />
<glyph unicode="&#x16b;" d="M74 227q0 42 12 82l150 680h260l-131 -598q-9 -41 -9 -57q0 -64 46.5 -95.5t121.5 -31.5q117 0 234 117l147 665h260l-219 -989h-260l29 127q-160 -152 -330 -152q-143 0 -227 68.5t-84 183.5zM371 1176l32 149h742l-33 -149h-741z" />
<glyph unicode="&#x16c;" horiz-adv-x="1503" d="M135 453q0 37 10 94l181 819h295l-179 -813q-8 -24 -8 -68q2 -109 79 -181.5t216 -72.5q281 0 354 322l179 813h297l-183 -819q-28 -131 -75.5 -230.5t-123 -179t-188.5 -121t-260 -41.5q-287 0 -440.5 129.5t-153.5 348.5zM649 1645l131 96q30 -59 85.5 -93t131.5 -34 q152 0 273 127l98 -96q-81 -85 -184.5 -133t-212.5 -48q-108 0 -192.5 48.5t-129.5 132.5z" />
<glyph unicode="&#x16d;" d="M74 227q0 42 12 82l150 680h260l-131 -598q-9 -41 -9 -57q0 -64 46.5 -95.5t121.5 -31.5q117 0 234 117l147 665h260l-219 -989h-260l29 127q-160 -152 -330 -152q-143 0 -227 68.5t-84 183.5zM418 1319l131 96q30 -59 85.5 -93t131.5 -34q151 0 272 127l99 -96 q-81 -84 -185 -132t-213 -48q-108 0 -192 48t-129 132z" />
<glyph unicode="&#x16e;" horiz-adv-x="1503" d="M135 453q0 37 10 94l181 819h295l-179 -813q-8 -24 -8 -68q2 -109 79 -181.5t216 -72.5q281 0 354 322l179 813h297l-183 -819q-28 -131 -75.5 -230.5t-123 -179t-188.5 -121t-260 -41.5q-287 0 -440.5 129.5t-153.5 348.5zM786 1614q0 95 70.5 165t165.5 70 q88 0 142.5 -54t54.5 -142q0 -95 -70.5 -165.5t-165.5 -70.5q-88 0 -142.5 54.5t-54.5 142.5zM907 1626q0 -38 24 -63t62 -25q42 0 73.5 30.5t31.5 71.5q0 39 -24 64t-62 25q-41 0 -73 -31t-32 -72z" />
<glyph unicode="&#x16f;" d="M74 227q0 42 12 82l150 680h260l-131 -598q-9 -41 -9 -57q0 -64 46.5 -95.5t121.5 -31.5q117 0 234 117l147 665h260l-219 -989h-260l29 127q-160 -152 -330 -152q-143 0 -227 68.5t-84 183.5zM561 1317q0 95 70.5 165t165.5 70q88 0 142 -54t54 -142q0 -95 -70 -165.5 t-165 -70.5q-88 0 -142.5 54.5t-54.5 142.5zM682 1329q0 -38 24 -63t62 -25q41 0 72.5 30.5t31.5 71.5q0 39 -24 64t-62 25q-41 0 -72.5 -31t-31.5 -72z" />
<glyph unicode="&#x170;" horiz-adv-x="1503" d="M135 453q0 37 10 94l181 819h295l-179 -813q-8 -24 -8 -68q2 -109 79 -181.5t216 -72.5q281 0 354 322l179 813h297l-183 -819q-28 -131 -75.5 -230.5t-123 -179t-188.5 -121t-260 -41.5q-287 0 -440.5 129.5t-153.5 348.5zM719 1491l244 295h213l-302 -295h-155z M1024 1491l244 295h213l-301 -295h-156z" />
<glyph unicode="&#x171;" d="M74 227q0 42 12 82l150 680h260l-131 -598q-9 -41 -9 -57q0 -64 46.5 -95.5t121.5 -31.5q117 0 234 117l147 665h260l-219 -989h-260l29 127q-160 -152 -330 -152q-143 0 -227 68.5t-84 183.5zM477 1139l244 295h213l-301 -295h-156zM782 1139l244 295h213l-301 -295 h-156z" />
<glyph unicode="&#x172;" horiz-adv-x="1503" d="M135 453q0 37 10 94l181 819h295l-179 -813q-8 -24 -8 -68q2 -109 79 -181.5t216 -72.5q281 0 354 322l179 813h297l-183 -819q-31 -142 -83 -248t-143.5 -186t-217.5 -113q-193 -83 -193 -203q0 -33 19.5 -50t52.5 -17q55 0 96 67l88 -73q-81 -105 -192 -105 q-82 0 -137.5 41t-55.5 115q0 111 95 200q-275 6 -422.5 135t-147.5 343z" />
<glyph unicode="&#x173;" d="M74 227q0 42 12 82l150 680h260l-131 -598q-9 -41 -9 -57q0 -64 46.5 -95.5t121.5 -31.5q117 0 234 117l147 665h260l-219 -989q-192 -83 -192 -203q0 -33 19 -50t52 -17q56 0 97 67l88 -73q-81 -105 -193 -105q-81 0 -136.5 41t-55.5 115q0 131 123 225h-62l29 127 q-160 -152 -330 -152q-143 0 -227 68.5t-84 183.5z" />
<glyph unicode="&#x174;" horiz-adv-x="1880" d="M193 1366h319l20 -987l478 987h227l41 -987l457 987h333l-690 -1366h-309l-33 938l-444 -938h-309zM854 1491l254 295h233l127 -295h-155l-111 182l-184 -182h-164z" />
<glyph unicode="&#x175;" horiz-adv-x="1576" d="M109 989h262l37 -665l364 665h232l67 -665l334 665h281l-521 -989h-278l-62 674l-356 -674h-279zM623 1139l254 295h233l127 -295h-156l-110 182l-185 -182h-163z" />
<glyph unicode="&#x176;" horiz-adv-x="1320" d="M182 1366h316l217 -547l459 547h346l-699 -807l-125 -559h-290l122 559zM578 1491l253 295h234l127 -295h-156l-110 182l-185 -182h-163z" />
<glyph unicode="&#x177;" horiz-adv-x="1050" d="M-98 -377l86 225q32 -14 100 -14q41 0 69 15t54 53l61 94l-176 993h271l104 -688l414 688h286l-720 -1151q-81 -130 -169.5 -184.5t-213.5 -54.5q-96 0 -166 24zM360 1139l254 295h234l127 -295h-156l-110 182l-185 -182h-164z" />
<glyph unicode="&#x178;" horiz-adv-x="1320" d="M182 1366h316l217 -547l459 547h346l-699 -807l-125 -559h-290l122 559zM553 1589q0 61 48 108.5t108 47.5q54 0 88 -35t34 -88q0 -62 -47 -109t-108 -47q-52 0 -87.5 35t-35.5 88zM985 1589q0 61 48 108.5t108 47.5q54 0 89.5 -35t35.5 -88q0 -61 -48 -108.5t-110 -47.5 q-52 0 -87.5 35t-35.5 88z" />
<glyph unicode="&#x179;" horiz-adv-x="1212" d="M-25 0l52 236l821 874h-627l55 256h1027l-50 -233l-825 -877h645l-57 -256h-1041zM653 1491l340 295h244l-397 -295h-187z" />
<glyph unicode="&#x17a;" horiz-adv-x="980" d="M-25 0l43 195l564 567h-437l50 227h800l-43 -186l-571 -576h450l-47 -227h-809zM459 1139l340 295h243l-397 -295h-186z" />
<glyph unicode="&#x17b;" horiz-adv-x="1212" d="M-25 0l52 236l821 874h-627l55 256h1027l-50 -233l-825 -877h645l-57 -256h-1041zM700 1589q0 61 48 108.5t110 47.5q53 0 88 -35.5t35 -89.5q0 -61 -48 -107.5t-110 -46.5q-53 0 -88 35t-35 88z" />
<glyph unicode="&#x17c;" horiz-adv-x="980" d="M-25 0l43 195l564 567h-437l50 227h800l-43 -186l-571 -576h450l-47 -227h-809zM518 1251q0 61 48 108.5t110 47.5q53 0 88 -35.5t35 -89.5q0 -61 -48 -107.5t-110 -46.5q-53 0 -88 35t-35 88z" />
<glyph unicode="&#x17d;" horiz-adv-x="1212" d="M-25 0l52 236l821 874h-627l55 256h1027l-50 -233l-825 -877h645l-57 -256h-1041zM584 1786h155l111 -182l184 182h164l-252 -295h-233z" />
<glyph unicode="&#x17e;" horiz-adv-x="980" d="M-25 0l43 195l564 567h-437l50 227h800l-43 -186l-571 -576h450l-47 -227h-809zM377 1434h155l111 -183l184 183h164l-252 -295h-233z" />
<glyph unicode="&#x17f;" horiz-adv-x="669" d="M78 0l168 762h-164l51 227h162l8 41q85 356 371 356q179 0 274 -98l-131 -153q-42 39 -110 39q-59 0 -93 -35.5t-49 -108.5l-227 -1030h-260z" />
<glyph unicode="&#x192;" horiz-adv-x="929" d="M-96 -330l182 817h-111v230h160l76 340q34 154 125.5 241.5t238.5 87.5q178 0 281 -98l-108 -203q-39 45 -107 45q-54 0 -92 -35.5t-53 -101.5l-62 -276h232v-230h-281l-182 -817h-299z" />
<glyph unicode="&#x1fc;" horiz-adv-x="1982" d="M-129 0l1133 1366h1083l-55 -256h-676l-62 -287h660l-58 -256h-659l-70 -311h676l-57 -256h-967l51 231h-471l-186 -231h-342zM594 487h334l125 574zM1116 1491l340 295h244l-397 -295h-187z" />
<glyph unicode="&#x1fd;" horiz-adv-x="1871" d="M53 385q0 114 35 224.5t98.5 201.5t164.5 147t222 56q100 0 184.5 -41.5t131.5 -114.5l29 131h262l-27 -115q133 140 299 140q174 0 267 -108t93 -314q0 -104 -20 -182h-731q0 -3 -1 -12.5t-1 -12.5q0 -71 73 -131.5t201 -60.5q66 0 133 19.5t113 53.5l80 -188 q-70 -48 -158 -75.5t-164 -27.5q-250 0 -342 187l-34 -162h-263l29 123q-127 -148 -297 -148q-172 0 -274.5 108.5t-102.5 301.5zM326 438q0 -104 62 -167.5t157 -63.5q131 0 227 119l76 342q-33 52 -94.5 83t-137.5 31q-125 0 -207.5 -102t-82.5 -242zM836 1139l340 295 h243l-397 -295h-186zM1087 590h492q0 2 1 10t1 10q0 81 -57 136t-168 55q-100 0 -175.5 -62.5t-93.5 -148.5z" />
<glyph unicode="&#x1fe;" horiz-adv-x="1566" d="M31 0l194 199q-135 157 -135 389q0 165 61.5 313t166.5 255t253 170t314 63q232 0 403 -111l86 88h209l-180 -182q153 -163 153 -406q0 -132 -39 -254.5t-111 -221.5t-169 -172.5t-219.5 -114t-255.5 -40.5q-247 0 -424 123l-96 -98h-211zM395 606q0 -108 45 -190 l645 655q-92 59 -219 59q-130 0 -238.5 -69.5t-170.5 -190t-62 -264.5zM541 305q97 -72 237 -72q97 0 185 41t151 111t100 167.5t37 205.5q0 120 -59 211zM834 1491l340 295h243l-397 -295h-186z" />
<glyph unicode="&#x1ff;" horiz-adv-x="1177" d="M-33 0l168 156q-80 112 -80 270q0 114 43 221t117 188t182 130t230 49q196 0 323 -94l76 69h174l-166 -153q84 -113 84 -273q0 -114 -43 -221t-117 -188t-182 -130t-231 -49q-201 0 -330 99l-78 -74h-170zM324 438q0 -54 14 -92l424 395q-56 41 -144 41 q-127 0 -210.5 -103t-83.5 -241zM406 250q58 -43 149 -43q127 0 210 103t83 241q0 47 -17 96zM559 1139l340 295h244l-398 -295h-186z" />
<glyph unicode="&#x218;" horiz-adv-x="1257" d="M18 231l181 215q71 -96 195.5 -154.5t264.5 -58.5q102 0 154.5 47t52.5 107q0 39 -36.5 70t-95.5 55t-129.5 48.5t-141.5 57t-130 73.5t-95.5 105.5t-36.5 145.5q0 85 37 164.5t103.5 142t169 100t224.5 37.5q164 0 309 -58t236 -163l-182 -209q-73 85 -185 129.5 t-223 44.5q-77 0 -129.5 -39.5t-52.5 -95.5q0 -36 37 -65.5t96 -53t130 -48.5t142 -58t130 -74.5t96 -106.5t37 -145q0 -94 -37.5 -179t-105 -149.5t-170.5 -102.5t-226 -38q-198 0 -364.5 70t-254.5 186zM287 -502q50 24 97.5 64t66.5 80h-19q-42 0 -70 27.5t-28 76.5 q0 56 43 97.5t98 41.5q53 0 89 -35t36 -98q0 -92 -69.5 -185t-172.5 -145z" />
<glyph unicode="&#x219;" horiz-adv-x="991" d="M-16 154l145 182q50 -59 148 -107.5t198 -48.5q64 0 103.5 30t39.5 73q0 36 -52 63t-126 50t-147.5 53.5t-125.5 89.5t-52 141q0 137 109 235.5t298 98.5q124 0 236 -43.5t184 -116.5l-135 -174q-38 49 -121.5 89t-169.5 40q-67 0 -105 -26t-38 -66q0 -24 28 -43.5 t72 -35t98 -32.5t108 -40.5t98 -54t72 -79.5t28 -110q0 -147 -116 -247t-312 -100q-137 0 -260 46.5t-205 132.5zM158 -502q50 24 97.5 64t66.5 80h-19q-42 0 -70 27.5t-28 76.5q0 56 43 97.5t98 41.5q53 0 89 -35t36 -98q0 -92 -69.5 -185t-172.5 -145z" />
<glyph unicode="&#x2c6;" horiz-adv-x="614" d="M141 1139l254 295h234l127 -295h-156l-111 182l-184 -182h-164z" />
<glyph unicode="&#x2da;" horiz-adv-x="428" d="M182 1317q0 95 70.5 165t165.5 70q88 0 142 -54t54 -142q0 -95 -70 -165.5t-165 -70.5q-88 0 -142.5 54.5t-54.5 142.5zM303 1329q0 -38 24 -63t62 -25q42 0 73.5 30.5t31.5 71.5q0 39 -24 64t-62 25q-41 0 -73 -31t-32 -72z" />
<glyph unicode="&#x2dc;" horiz-adv-x="669" d="M143 1147q27 136 86 205t162 69q40 0 71.5 -14t51.5 -34.5t38 -40.5t39.5 -34t47.5 -14q63 0 92 125h139q-29 -137 -87.5 -205.5t-161.5 -68.5q-40 0 -71 14.5t-51 34.5t-37.5 40.5t-39 35t-47.5 14.5q-66 0 -92 -127h-140z" />
<glyph unicode="&#x394;" horiz-adv-x="1400" d="M-119 0l828 1366h364l225 -1366h-1417zM362 256h596l-116 819z" />
<glyph unicode="&#x3a9;" horiz-adv-x="1566" d="M-4 0l57 256h279q-217 181 -217 444q0 99 31 197t95.5 186.5t154.5 156.5t216 108.5t271 40.5q192 0 345 -66.5t244 -197.5t91 -306q0 -95 -29.5 -181t-83 -155t-119 -124.5t-147.5 -102.5h223l-55 -256h-551l24 117l31 139q177 39 285 179.5t108 326.5q0 166 -101.5 266 t-277.5 100q-140 0 -250 -75t-166.5 -192t-56.5 -251q0 -245 207 -354l-57 -256h-551z" />
<glyph unicode="&#x3bc;" d="M-66 -377l304 1366h260l-133 -600q-22 -99 15 -141.5t126 -42.5q70 0 136 33t114 81l149 670h260l-219 -989h-260l25 125q-70 -64 -168.5 -107t-210.5 -43q-15 0 -60 5l-77 -357h-261z" />
<glyph unicode="&#x3c0;" horiz-adv-x="1271" d="M84 0l176 795h-143l49 229h1169l-49 -229h-143l-176 -795h-262l176 795h-359l-174 -795h-264z" />
<glyph unicode="&#x2000;" horiz-adv-x="924" />
<glyph unicode="&#x2001;" horiz-adv-x="1849" />
<glyph unicode="&#x2002;" horiz-adv-x="924" />
<glyph unicode="&#x2003;" horiz-adv-x="1849" />
<glyph unicode="&#x2004;" horiz-adv-x="616" />
<glyph unicode="&#x2005;" horiz-adv-x="462" />
<glyph unicode="&#x2006;" horiz-adv-x="308" />
<glyph unicode="&#x2007;" horiz-adv-x="308" />
<glyph unicode="&#x2008;" horiz-adv-x="231" />
<glyph unicode="&#x2009;" horiz-adv-x="369" />
<glyph unicode="&#x200a;" horiz-adv-x="102" />
<glyph unicode="&#x2010;" horiz-adv-x="614" d="M37 385l47 221h491l-47 -221h-491z" />
<glyph unicode="&#x2011;" horiz-adv-x="614" d="M37 385l47 221h491l-47 -221h-491z" />
<glyph unicode="&#x2012;" horiz-adv-x="614" d="M37 385l47 221h491l-47 -221h-491z" />
<glyph unicode="&#x2013;" horiz-adv-x="1214" d="M37 385l47 221h1092l-48 -221h-1091z" />
<glyph unicode="&#x2014;" horiz-adv-x="1705" d="M37 385l47 221h1583l-47 -221h-1583z" />
<glyph unicode="&#x2018;" horiz-adv-x="522" d="M186 977q0 117 86 232.5t215 179.5l93 -99q-63 -28 -120.5 -74.5t-80.5 -97.5q6 2 22 2q53 0 89 -35t36 -98q0 -71 -56 -123.5t-126 -52.5q-66 0 -112 44t-46 122z" />
<glyph unicode="&#x2019;" horiz-adv-x="522" d="M203 907q61 28 118.5 74.5t81.5 97.5q-6 -2 -22 -2q-54 0 -90.5 35t-36.5 98q0 71 56 123.5t126 52.5q67 0 113.5 -44t46.5 -123q0 -116 -86 -231t-215 -179z" />
<glyph unicode="&#x201a;" horiz-adv-x="522" d="M-37 -172q63 30 120.5 76t80.5 96h-23q-53 0 -89 35t-36 98q0 71 56.5 123.5t126.5 52.5q66 0 111.5 -44.5t45.5 -123.5q0 -116 -86 -231.5t-215 -177.5z" />
<glyph unicode="&#x201c;" horiz-adv-x="940" d="M188 977q0 117 86 232.5t215 179.5l95 -99q-63 -28 -120.5 -74.5t-80.5 -97.5q4 2 20 2q54 0 90.5 -35t36.5 -98q0 -71 -56 -123.5t-126 -52.5q-66 0 -113 44t-47 122zM606 977q0 117 86 232.5t215 179.5l92 -99q-63 -28 -120 -74t-80 -98q4 2 20 2q54 0 90.5 -35 t36.5 -98q0 -71 -56 -123.5t-126 -52.5q-66 0 -112 44t-46 122z" />
<glyph unicode="&#x201d;" horiz-adv-x="940" d="M203 907q61 28 118.5 74.5t81.5 97.5q-6 -2 -22 -2q-54 0 -90.5 35t-36.5 98q0 71 56 123.5t126 52.5q67 0 113.5 -44t46.5 -123q0 -116 -86 -231t-215 -179zM618 907q63 28 120.5 74.5t80.5 97.5q-6 -2 -22 -2q-54 0 -89.5 35t-35.5 98q0 71 55 123.5t125 52.5 q67 0 113.5 -44t46.5 -123q0 -116 -86 -231t-215 -179z" />
<glyph unicode="&#x201e;" horiz-adv-x="940" d="M-37 -172q63 30 120.5 76t80.5 96h-23q-53 0 -89 35t-36 98q0 71 56.5 123.5t126.5 52.5q66 0 111.5 -44.5t45.5 -123.5q0 -116 -86 -231.5t-215 -177.5zM379 -172q63 30 120.5 76t80.5 96h-21q-54 0 -90.5 35t-36.5 98q0 71 56 123.5t126 52.5q66 0 112 -44.5t46 -123.5 q0 -116 -85 -231.5t-214 -177.5z" />
<glyph unicode="&#x2020;" horiz-adv-x="567" d="M166 1069l29 127l180 -6l35 196h139l-51 -196l182 6l-29 -127l-180 8l-82 -407h-139l100 407z" />
<glyph unicode="&#x2021;" horiz-adv-x="567" d="M53 561l29 127l178 -8l88 397l-182 -8l29 127l180 -6l35 196h139l-51 -196l182 6l-29 -127l-180 8l-88 -397l184 8l-28 -127l-181 6l-36 -198h-140l54 198z" />
<glyph unicode="&#x2022;" horiz-adv-x="733" d="M121 473q0 108 81.5 187t190.5 79q94 0 156.5 -62.5t62.5 -156.5q0 -108 -81.5 -187t-190.5 -79q-94 0 -156.5 62.5t-62.5 156.5z" />
<glyph unicode="&#x2026;" horiz-adv-x="1572" d="M16 129q0 73 54.5 126.5t128.5 53.5q63 0 107 -45t44 -108q0 -73 -54 -127t-128 -54q-63 0 -107.5 45.5t-44.5 108.5zM541 129q0 73 54 126.5t128 53.5q63 0 107 -45t44 -108q0 -73 -54 -127t-128 -54q-63 0 -107 45.5t-44 108.5zM1067 129q0 73 53.5 126.5t126.5 53.5 q63 0 107.5 -45t44.5 -108q0 -73 -54 -127t-128 -54q-63 0 -106.5 45.5t-43.5 108.5z" />
<glyph unicode="&#x202f;" horiz-adv-x="369" />
<glyph unicode="&#x2030;" horiz-adv-x="2297" d="M156 0l1173 1366h156l-1176 -1366h-153zM168 989q0 174 111 285.5t268 111.5q136 0 231.5 -77t95.5 -205q0 -174 -111 -285.5t-267 -111.5q-137 0 -232.5 77t-95.5 205zM352 1006q0 -60 42 -100t108 -40q77 0 131.5 61.5t54.5 157.5q0 62 -41.5 102t-105.5 40 q-79 0 -134 -62t-55 -159zM758 260q0 174 111 285.5t268 111.5q136 0 231.5 -78t95.5 -206q0 -173 -111.5 -285.5t-267.5 -112.5q-137 0 -232 78.5t-95 206.5zM944 276q0 -62 41 -101.5t107 -39.5q77 0 131.5 62t54.5 159q0 60 -42 100t-106 40q-78 0 -132 -62t-54 -158z M1503 260q0 174 111 285.5t268 111.5q136 0 232 -78t96 -206q0 -173 -111.5 -285.5t-267.5 -112.5q-137 0 -232.5 78.5t-95.5 206.5zM1690 276q0 -62 40.5 -101.5t106.5 -39.5q77 0 131.5 62t54.5 159q0 60 -41.5 100t-105.5 40q-77 0 -131.5 -62t-54.5 -158z" />
<glyph unicode="&#x2039;" horiz-adv-x="692" d="M59 498l410 362h250l-418 -373l238 -358h-234z" />
<glyph unicode="&#x203a;" horiz-adv-x="692" d="M-23 129l418 373l-237 358h233l246 -368l-410 -363h-250z" />
<glyph unicode="&#x2044;" horiz-adv-x="325" d="M-463 0l1174 1366h157l-1175 -1366h-156z" />
<glyph unicode="&#x205f;" horiz-adv-x="462" />
<glyph unicode="&#x20a1;" horiz-adv-x="1425" d="M109 588q0 176 64.5 328t173.5 254.5t253.5 160.5t302.5 58q59 0 111 -9l106 193h156l-125 -225q41 -13 106 -48l152 273h156l-199 -356q90 -83 143 -216l-278 -94q-5 15 -17 35l-391 -709q82 6 161.5 48.5t133.5 109.5l225 -151q-110 -139 -260.5 -202t-302.5 -63 q-40 0 -98 7l-102 -187h-154l119 213q-38 12 -111 45l-143 -258h-156l184 332q-100 81 -155 199t-55 262zM414 606q0 -122 55 -207l405 731q-125 -4 -230 -72.5t-167.5 -188t-62.5 -263.5zM569 297q37 -27 107 -49l446 809q-48 35 -102 53z" />
<glyph unicode="&#x20a3;" horiz-adv-x="1187" d="M-45 223l33 150h137l219 993h967l-58 -256h-673l-64 -287h660l-56 -256h-661l-43 -194h313l-33 -150h-313l-49 -223h-291l49 223h-137z" />
<glyph unicode="&#x20a4;" horiz-adv-x="1126" d="M25 184q96 42 168.5 110.5t99.5 147.5h-260l30 133h242q-7 41 -33 107h-186l31 135h94q-23 61 -23 125q0 91 42.5 173t115 141.5t171.5 94.5t208 35q176 0 308.5 -72.5t172.5 -201.5l-262 -108q-15 68 -72 106.5t-135 38.5q-98 0 -165.5 -67.5t-67.5 -170.5q0 -48 16 -94 h354l-28 -135h-271q13 -59 13 -86q0 -15 -2 -21h235l-28 -133h-248q-59 -104 -152 -157q49 16 92 16q61 0 150.5 -34t142.5 -34q96 0 166 74l64 -231q-99 -103 -252 -103q-76 0 -161 22.5t-160.5 45t-127.5 22.5q-99 0 -229 -77z" />
<glyph unicode="&#x20a6;" horiz-adv-x="1529" d="M10 473l35 148h135l29 135h-135l32 149h136l102 461h299l231 -461h300l102 461h291l-103 -461h131l-32 -149h-131l-29 -135h131l-35 -148h-129l-104 -473h-281l-235 473h-312l-104 -473h-291l104 473h-137zM471 621h205l-141 284zM950 756l131 -260l58 260h-189z" />
<glyph unicode="&#x20a7;" horiz-adv-x="1388" d="M43 0l186 852h-135l33 149h135l82 365h625q158 0 266.5 -106t114.5 -259h135l-33 -149h-123q-20 -71 -59.5 -133t-103.5 -115.5t-162.5 -85t-219.5 -31.5h-342l-108 -487h-291zM498 743h305q72 0 128.5 29.5t86.5 79.5h-496zM555 1001h485q-15 50 -58.5 79.5t-104.5 29.5 h-297z" />
<glyph unicode="&#x20a8;" horiz-adv-x="2195" d="M25 0l301 1366h583q112 0 207 -45.5t155 -135t60 -204.5q0 -182 -110 -313t-279 -162l191 -506h-324l-162 485h-225l-107 -485h-290zM479 741h303h2q112 0 178 58.5t66 152.5q0 67 -52.5 112.5t-121.5 45.5h-293zM1200 154l146 182q50 -59 148 -107.5t198 -48.5 q64 0 103.5 30t39.5 73q0 36 -52 63t-126 50t-148 53.5t-126 89.5t-52 141q0 137 109.5 235.5t298.5 98.5q124 0 236 -43.5t184 -116.5l-136 -174q-38 50 -121 89.5t-169 39.5q-67 0 -105.5 -26t-38.5 -66q0 -24 28 -43.5t72 -35t98 -32.5t108 -40.5t98 -54t72 -79.5 t28 -110q0 -147 -116 -247t-312 -100q-137 0 -260 46.5t-205 132.5z" />
<glyph unicode="&#x20a9;" horiz-adv-x="1880" d="M18 473l35 148h189l-9 135h-151l33 149h108l-30 461h319l8 -461h266l224 461h227l18 -461h267l213 461h333l-233 -461h102l-32 -149h-146l-67 -135h184l-35 -148h-223l-240 -473h-309l-16 473h-238l-223 -473h-309l-31 473h-234zM524 756l8 -377l183 377h-191zM885 621 h162l-11 317zM1262 756l16 -377l174 377h-190z" />
<glyph unicode="&#x20aa;" horiz-adv-x="1730" d="M18 0l248 1126h504q103 0 185.5 -18.5t148 -57.5t101.5 -108t36 -164q0 -64 -18 -145l-60 -273h-245l61 277q10 42 10 82q0 90 -55 136t-156 46h-315l-199 -901h-246zM426 0l168 764h246l-119 -539h383q108 0 162 58.5t82 187.5l145 655h246l-150 -677 q-24 -113 -56.5 -190t-87 -138.5t-137 -91t-198.5 -29.5h-684z" />
<glyph unicode="&#x20ac;" horiz-adv-x="1452" d="M35 461l35 162h77q3 63 15 125h-64l37 161h74q92 221 291 350.5t442 129.5q121 0 223.5 -31t175.5 -86t124.5 -122.5t82.5 -148.5l-278 -94q-39 107 -130 165t-212 58q-118 0 -221 -59t-170 -162h522l-37 -161h-553q-16 -82 -16 -125h542l-37 -162h-481 q41 -105 134.5 -166.5t224.5 -61.5q88 0 175.5 43t145.5 115l225 -151q-110 -139 -260.5 -202t-302.5 -63q-252 0 -433.5 132t-225.5 354h-125z" />
<glyph unicode="&#x2122;" horiz-adv-x="929" d="M215 1313l10 53h312l-11 -53h-127l-88 -398h-57l88 398h-127zM512 915l98 451h88l60 -328l203 328h88l-99 -451h-57l82 373l-236 -373h-16l-72 373l-82 -373h-57z" />
<glyph unicode="&#x25fc;" horiz-adv-x="993" d="M0 0v993h993v-993h-993z" />
</font>
</defs>
</svg>
